The.Sound.(2017).WEBRip.1080p.AC3.x264-FGT

Encodes in the resolutions 720p, 810p and 1080p, and in irregular HD resolutions, from non-retail (WEB or HDTV) sources, with one or more English audio tracks only. This section does not include animated or TV/documentary films, it does however include black & white movies.
Post Reply
bjorn j
Donator
Donator
Posts: 2780
Joined: Wed Jan 07, 2009 1:49 pm
Has thanked: 43 times
Been thanked: 6474 times

The.Sound.(2017).WEBRip.1080p.AC3.x264-FGT

Post by bjorn j » Sat Sep 30, 2017 11:37 pm

Image

http://www.IMDb.com/title/tt4669278/
Genres: Horror, Mystery, Thriller

A supernatural skeptic sets off to debunk paranormal sightings using low frequency sound waves in an abandoned subway station and is met with unforeseen evil and eerie memories.

Kelly (Rose McGowan) is a writer and a skeptic of the supernatural. As a specialist in acoustic physics she uses low frequency tactile sound-waves to debunk reported paranormal activities for her online blog. When presented a new case of a supposedly haunted subway station Kelly sets off to uncover the truth behind the hoax that involves a 40-year-old unexplained suicide. Her investigation takes her deep into the abandoned station where her skepticism is tested. As Kelly ascends into the depths of the metro's darkness she is confronted by an unforeseen evil. In the vastness, she must face her own haunted memories to find the truth and surface back into the light.

Code: Select all

Video
ID                                       : 1
Format                                   : AVC
Format/Info                              : Advanced Video Codec
Format profile                           : High@L4.0
Format settings, CABAC                   : Yes
Format settings, ReFrames                : 5 frames
Codec ID                                 : V_MPEG4/ISO/AVC
Duration                                 : 1h 32mn
Bit rate                                 : 4 511 Kbps
Width                                    : 1 904 pixels
Height                                   : 804 pixels
Display aspect ratio                     : 2.35:1
Frame rate mode                          : Constant
Frame rate                               : 23.976 fps
Color space                              : YUV
Chroma subsampling                       : 4:2:0
Bit depth                                : 8 bits
Scan type                                : Progressive
Bits/(Pixel*Frame)                       : 0.123
Stream size                              : 2.93 GiB (90%)
Title                                    : The.Sound.2017.1080p.WEB-DL.DD5.1.H264-FGT
Language                                 : English
Default                                  : Yes
Forced                                   : No
Color primaries                          : BT.709
Transfer characteristics                 : BT.709
Matrix coefficients                      : BT.709
Color range                              : Limited

Audio
ID                                       : 2
Format                                   : AC-3
Format/Info                              : Audio Coding 3
Mode extension                           : CM (complete main)
Format settings, Endianness              : Big
Codec ID                                 : A_AC3
Duration                                 : 1h 32mn
Bit rate mode                            : Constant
Bit rate                                 : 384 Kbps
Channel(s)                               : 6 channels
Channel positions                        : Front: L C R, Side: L R, LFE
Sampling rate                            : 48.0 KHz
Bit depth                                : 16 bits
Compression mode                         : Lossy
Delay relative to video                  : -42ms
Stream size                              : 255 MiB (8%)
Title                                    : The.Sound.2017.1080p.WEB-DL.DD5.1.H264-FGT
Language                                 : English
Default                                  : Yes
Forced                                   : No

Text
ID                                       : 3
Format                                   : UTF-8
Codec ID                                 : S_TEXT/UTF8
Codec ID/Info                            : UTF-8 Plain Text
Language                                 : English
Default                                  : Yes
Forced                                   : No

Menu
00:00:00.000                             : en:Chapter 1
00:09:47.587                             : en:Chapter 2
00:21:09.268                             : en:Chapter 3
00:30:26.825                             : en:Chapter 4
00:40:18.416                             : en:Chapter 5
00:50:32.029                             : en:Chapter 6
01:00:00.597                             : en:Chapter 7
01:09:34.170                             : en:Chapter 8
01:20:00.796                             : en:Chapter 9
01:29:16.351                             : en:Chapter 10
Image

The.Sound.2017.1080p.WEB-DL.DD5.1.H264-FGT.mkv  [3.24 Gb]

Post Reply

Return to “Non-Retail HD (720p, 810p, 1080p)”