Big.Bear.(2017).WEBRip.1080p.AC3.x264-FGT

Encodes in the resolutions 720p, 810p and 1080p, and in irregular HD resolutions, from non-retail (WEB or HDTV) sources, with one or more English audio tracks only. This section does not include animated or TV/documentary films, it does however include black & white movies.
Post Reply
bjorn j
Donator
Donator
Posts: 2701
Joined: Wed Jan 07, 2009 1:49 pm
Has thanked: 33 times
Been thanked: 6027 times

Big.Bear.(2017).WEBRip.1080p.AC3.x264-FGT

Post by bjorn j » Fri Sep 22, 2017 2:01 pm

Image

http://www.IMDb.com/title/tt4986754/
Genre: Comedy

BIG BEAR is about Joe (Joey Kern) who reluctantly has his bachelor party even though his fiancé just dumped him for some Dude (recent Emmy nominated. Pablo Schreiber).

When Joe is dumped by his fiancée, he reluctantly decides to go ahead with his bachelor party anyway and heads up to Big Bear Mountain with three friends. Things take a turn for the worse when Joe discovers one of his friends kidnapped the man his fiancée ran off with and tied him up in the basement.

Code: Select all

Format                                   : Matroska
File size                                : 3.00 GiB
Duration                                 : 1h 27mn
Overall bit rate                         : 4 925 Kbps

Video
ID                                       : 1
Format                                   : AVC
Format/Info                              : Advanced Video Codec
Format profile                           : High@L4.0
Format settings, CABAC                   : Yes
Format settings, ReFrames                : 5 frames
Codec ID                                 : V_MPEG4/ISO/AVC
Duration                                 : 1h 27mn
Bit rate                                 : 4 443 Kbps
Width                                    : 1 912 pixels
Height                                   : 796 pixels
Display aspect ratio                     : 2.40:1
Frame rate mode                          : Constant
Frame rate                               : 23.976 fps
Color space                              : YUV
Chroma subsampling                       : 4:2:0
Bit depth                                : 8 bits
Scan type                                : Progressive
Bits/(Pixel*Frame)                       : 0.122
Stream size                              : 2.71 GiB (90%)
Title                                    : Big.Bear.2017.1080p.WEB-DL.DD5.1.H264-FGT
Language                                 : English
Default                                  : Yes
Forced                                   : No
Color primaries                          : BT.709
Transfer characteristics                 : BT.709
Matrix coefficients                      : BT.709
Color range                              : Limited

Audio
ID                                       : 2
Format                                   : AC-3
Format/Info                              : Audio Coding 3
Mode extension                           : CM (complete main)
Format settings, Endianness              : Big
Codec ID                                 : A_AC3
Duration                                 : 1h 27mn
Bit rate mode                            : Constant
Bit rate                                 : 384 Kbps
Channel(s)                               : 6 channels
Channel positions                        : Front: L C R, Side: L R, LFE
Sampling rate                            : 48.0 KHz
Bit depth                                : 16 bits
Compression mode                         : Lossy
Delay relative to video                  : -42ms
Stream size                              : 240 MiB (8%)
Title                                    : Big.Bear.2017.1080p.WEB-DL.DD5.1.H264-FGT
Language                                 : English
Default                                  : Yes
Forced                                   : No

Text
ID                                       : 3
Format                                   : UTF-8
Codec ID                                 : S_TEXT/UTF8
Codec ID/Info                            : UTF-8 Plain Text
Language                                 : English
Default                                  : Yes
Forced                                   : No

Menu
00:00:00.000                             : en:1
00:01:48.000                             : en:2
00:11:50.000                             : en:3
00:21:08.000                             : en:4
00:33:07.000                             : en:5
00:41:43.000                             : en:6
00:51:55.000                             : en:7
00:59:43.000                             : en:8
01:08:12.000                             : en:9
01:23:03.000                             : en:10
Image

Big.Bear.2017.1080p.WEB-DL.DD5.1.H264-FGT.mkv  [3.00 Gb]

Post Reply

Return to “Non-Retail HD (720p, 810p, 1080p)”