Strange.Weather.(2016).WEBRip.1080p.AC3.x264-FGT

Encodes in the resolutions 720p, 810p and 1080p, and in irregular HD resolutions, from non-retail (WEB or HDTV) sources, with one or more English audio tracks only. This section does not include animated or TV/documentary films, it does however include black & white movies.
Post Reply
bjorn j
Donator
Donator
Posts: 2792
Joined: Wed Jan 07, 2009 1:49 pm
Has thanked: 44 times
Been thanked: 6518 times

Strange.Weather.(2016).WEBRip.1080p.AC3.x264-FGT

Post by bjorn j » Sun Jul 30, 2017 12:23 am

Image

http://www.IMDb.com/title/tt5205210/
Genres: Adventure, Drama

A poignant, lyrical drama about a mother (Hunter), who, in an effort to deal with the grief over the death of her son, travels the back roads of the deep south to settle a score. A story of grief and forgiveness, of looking inward to find a way to move forward.

Academy Award winner Holly Hunter gets behind the wheel in this engrossing story of a woman's quest for rectitude in the wake of harrowing loss. Steeped in a strong sense of place and peopled by convention-defying characters, Katherine Dieckmann's Strange Weather draws you into its sultry Southern milieu and takes you on a back-roads trek you won't soon forget.

Code: Select all

Video
ID                                       : 1
Format                                   : AVC
Format/Info                              : Advanced Video Codec
Format profile                           : High@L4
Format settings, CABAC                   : Yes
Format settings, ReFrames                : 4 frames
Codec ID                                 : V_MPEG4/ISO/AVC
Duration                                 : 1 h 31 min
Bit rate                                 : 5 071 kb/s
Width                                    : 1 916 pixels
Height                                   : 1 040 pixels
Display aspect ratio                     : 1.85:1
Frame rate mode                          : Constant
Frame rate                               : 23.976 (24000/1001) FPS
Color space                              : YUV
Chroma subsampling                       : 4:2:0
Bit depth                                : 8 bits
Scan type                                : Progressive
Bits/(Pixel*Frame)                       : 0.106
Stream size                              : 3.23 GiB (91%)
Title                                    : Strange.Weather.2016.1080p.WEB-DL.DD5.1.H264-FGT
Language                                 : English
Default                                  : Yes
Forced                                   : No
Color range                              : Limited
Color primaries                          : BT.709
Transfer characteristics                 : BT.709
Matrix coefficients                      : BT.709

Audio
ID                                       : 2
Format                                   : AC-3
Format/Info                              : Audio Coding 3
Format settings, Endianness              : Big
Codec ID                                 : A_AC3
Duration                                 : 1 h 31 min
Bit rate mode                            : Constant
Bit rate                                 : 384 kb/s
Channel(s)                               : 6 channels
Channel positions                        : Front: L C R, Side: L R, LFE
Sampling rate                            : 48.0 kHz
Frame rate                               : 31.250 FPS (1536 spf)
Bit depth                                : 16 bits
Compression mode                         : Lossy
Delay relative to video                  : -42 ms
Stream size                              : 250 MiB (7%)
Title                                    : Strange.Weather.2016.1080p.WEB-DL.DD5.1.H264-FGT
Language                                 : English
Service kind                             : Complete Main
Default                                  : Yes
Forced                                   : No

Text
ID                                       : 3
Format                                   : UTF-8
Codec ID                                 : S_TEXT/UTF8
Codec ID/Info                            : UTF-8 Plain Text
Language                                 : English
Default                                  : Yes
Forced                                   : No

Menu
00:00:00.000                             : en:Chapter 1
00:11:48.000                             : en:Chapter 2
00:21:46.000                             : en:Chapter 3
00:32:09.000                             : en:Chapter 4
00:41:43.000                             : en:Chapter 5
00:50:47.000                             : en:Chapter 6
01:04:48.000                             : en:Chapter 7
01:19:06.000                             : en:Chapter 8
01:25:30.000                             : en:Chapter 9
Image

Strange.Weather.2016.1080p.WEB-DL.DD5.1.H264-FGT.mkv  [3.54 Gb]

Post Reply

Return to “Non-Retail HD (720p, 810p, 1080p)”