Camera.Obscura.(2017).WEBRip.1080p.AC3.x264-FGT

Encodes in the resolutions 720p, 810p and 1080p, and in irregular HD resolutions, from non-retail (WEB or HDTV) sources, with one or more English audio tracks only. This section does not include animated or TV/documentary films, it does however include black & white movies.
Post Reply
bjorn j
Donator
Donator
Posts: 2920
Joined: Wed Jan 07, 2009 1:49 pm
Has thanked: 24 times
Been thanked: 5752 times

Camera.Obscura.(2017).WEBRip.1080p.AC3.x264-FGT

Post by bjorn j » Sun Jul 23, 2017 1:19 am

Image

http://www.IMDb.com/title/tt5651458/
Genres: Horror, Thriller

A young man gets a pre- World War II camera from his fiancee. He was formerly a war photographer who has been experiencing PTSD. The new/old camera is not helping as it photographs events which have yet to occur.

Code: Select all

Format                                   : Matroska
File size                                : 3.34 GiB
Duration                                 : 1h 35mn
Overall bit rate                         : 5 022 Kbps

Video
ID                                       : 1
Format                                   : AVC
Format/Info                              : Advanced Video Codec
Format profile                           : High@L4.0
Format settings, CABAC                   : Yes
Format settings, ReFrames                : 5 frames
Codec ID                                 : V_MPEG4/ISO/AVC
Duration                                 : 1h 35mn
Bit rate                                 : 4 538 Kbps
Width                                    : 1 916 pixels
Height                                   : 796 pixels
Display aspect ratio                     : 2.40:1
Frame rate mode                          : Constant
Frame rate                               : 23.976 fps
Color space                              : YUV
Chroma subsampling                       : 4:2:0
Bit depth                                : 8 bits
Scan type                                : Progressive
Bits/(Pixel*Frame)                       : 0.124
Stream size                              : 3.02 GiB (90%)
Title                                    : Camera.Obscura.2017.1080p.WEB-DL.DD5.1.H264-FGT
Language                                 : English
Default                                  : Yes
Forced                                   : No
Color primaries                          : BT.709
Transfer characteristics                 : BT.709
Matrix coefficients                      : BT.709
Color range                              : Limited

Audio
ID                                       : 2
Format                                   : AC-3
Format/Info                              : Audio Coding 3
Mode extension                           : CM (complete main)
Format settings, Endianness              : Big
Codec ID                                 : A_AC3
Duration                                 : 1h 35mn
Bit rate mode                            : Constant
Bit rate                                 : 384 Kbps
Channel(s)                               : 6 channels
Channel positions                        : Front: L C R, Side: L R, LFE
Sampling rate                            : 48.0 KHz
Bit depth                                : 16 bits
Compression mode                         : Lossy
Delay relative to video                  : -42ms
Stream size                              : 261 MiB (8%)
Title                                    : Camera.Obscura.2017.1080p.WEB-DL.DD5.1.H264-FGT
Language                                 : English
Default                                  : No
Forced                                   : No

Text
ID                                       : 3
Format                                   : UTF-8
Codec ID                                 : S_TEXT/UTF8
Codec ID/Info                            : UTF-8 Plain Text
Language                                 : English
Default                                  : Yes
Forced                                   : No

Menu
00:00:00.000                             : en:1
00:05:27.202                             : en:2
00:12:17.487                             : en:3
00:18:11.841                             : en:4
00:25:19.310                             : en:5
00:31:00.901                             : en:6
00:35:51.149                             : en:7
00:42:32.592                             : en:8
00:50:47.795                             : en:9
00:58:04.356                             : en:10
01:02:44.385                             : en:11
01:06:30.234                             : en:12
01:13:19.475                             : en:13
01:17:10.539                             : en:14
01:26:15.584                             : en:15
01:32:06.142                             : en:16
Image

Camera.Obscura.2017.1080p.WEB-DL.DD5.1.H264-FGT.mkv  [3.34 Gb]

Post Reply

Return to “Non-Retail HD (720p, 810p, 1080p)”