5150.(2016).WEBRip.1080p.AC3.x264-FGT

Encodes in the resolutions 720p, 810p and 1080p, and in irregular HD resolutions, from non-retail (WEB or HDTV) sources, with one or more English audio tracks only. This section does not include animated or TV/documentary films, it does however include black & white movies.
Post Reply
bjorn j
Donator
Donator
Posts: 2920
Joined: Wed Jan 07, 2009 1:49 pm
Has thanked: 24 times
Been thanked: 5752 times

5150.(2016).WEBRip.1080p.AC3.x264-FGT

Post by bjorn j » Tue Jul 11, 2017 11:41 pm

Image

http://www.IMDb.com/title/tt5198850/
Genres: Drama, Thriller

When Autumn, a bestselling novelist, sends her mentally unstable stepsister away on a "5150" involuntary mental health hold, her best friends rally around her. Two years, later her stepsister resurfaces with secrets to share about all of them and the line of sanity and insanity gets blurred.

Code: Select all

Video
ID                                       : 1
Format                                   : AVC
Format/Info                              : Advanced Video Codec
Format profile                           : High@L4
Format settings, CABAC                   : Yes
Format settings, ReFrames                : 5 frames
Codec ID                                 : V_MPEG4/ISO/AVC
Duration                                 : 1 h 16 min
Bit rate                                 : 4 490 kb/s
Width                                    : 1 904 pixels
Height                                   : 800 pixels
Display aspect ratio                     : 2.40:1
Frame rate mode                          : Constant
Frame rate                               : 23.976 (24000/1001) FPS
Color space                              : YUV
Chroma subsampling                       : 4:2:0
Bit depth                                : 8 bits
Scan type                                : Progressive
Bits/(Pixel*Frame)                       : 0.123
Stream size                              : 2.41 GiB (90%)
Title                                    : 5150.2016.1080p.WEB-DL.DD5.1.H264-FGT
Language                                 : English
Default                                  : Yes
Forced                                   : No
Color range                              : Limited
Color primaries                          : BT.709
Transfer characteristics                 : BT.709
Matrix coefficients                      : BT.709

Audio
ID                                       : 2
Format                                   : AC-3
Format/Info                              : Audio Coding 3
Format settings, Endianness              : Big
Codec ID                                 : A_AC3
Duration                                 : 1 h 16 min
Bit rate mode                            : Constant
Bit rate                                 : 384 kb/s
Channel(s)                               : 6 channels
Channel positions                        : Front: L C R, Side: L R, LFE
Sampling rate                            : 48.0 kHz
Frame rate                               : 31.250 FPS (1536 spf)
Bit depth                                : 16 bits
Compression mode                         : Lossy
Delay relative to video                  : -42 ms
Stream size                              : 211 MiB (8%)
Title                                    : 5150.2016.1080p.WEB-DL.DD5.1.H264-FGT
Language                                 : English
Service kind                             : Complete Main
Default                                  : Yes
Forced                                   : No

Text
ID                                       : 3
Format                                   : UTF-8
Codec ID                                 : S_TEXT/UTF8
Codec ID/Info                            : UTF-8 Plain Text
Language                                 : English
Default                                  : Yes
Forced                                   : No

Menu
00:00:00.000                             : en:Chapter 1
00:07:29.449                             : en:Chapter 2
00:13:09.789                             : en:Chapter 3
00:19:55.194                             : en:Chapter 4
00:24:42.481                             : en:Chapter 5
00:29:26.765                             : en:Chapter 6
00:39:40.378                             : en:Chapter 7
00:44:19.657                             : en:Chapter 8
00:47:59.877                             : en:Chapter 9
00:58:58.535                             : en:Chapter 10
01:08:29.105                             : en:Chapter 11
Image

5150.2016.1080p.WEB-DL.DD5.1.H264-FGT.mkv  [2.67 Gb]

Post Reply

Return to “Non-Retail HD (720p, 810p, 1080p)”