Austin.Found.(2017).WEBRip.720p.AC3.x264-EVO

Encodes in the resolutions 720p, 810p and 1080p, and in irregular HD resolutions, from non-retail (WEB or HDTV) sources, with one or more English audio tracks only. This section does not include animated or TV/documentary films, it does however include black & white movies.
Post Reply
bjorn j
Donator
Donator
Posts: 2780
Joined: Wed Jan 07, 2009 1:49 pm
Has thanked: 43 times
Been thanked: 6474 times

Austin.Found.(2017).WEBRip.720p.AC3.x264-EVO

Post by bjorn j » Fri Jul 07, 2017 11:58 am

Image

http://www.IMDb.com/title/tt2658538/
Genres: Comedy, Drama

Leanne Miller is a 36-year-old wife and mother whose hunger for fame and fortune leads her down a dangerous path. A former beauty queen and prom queen, Leanne is fed up with her unglamorously average lifestyle when she decides to take matters into her own hands by plotting a scheme to make her family instant celebrities. Teaming up with her ex-boyfriend, Billy, and his ex-con buddy, Jebidiah, Leanne conspires to have her 11-year-old daughter, Patty, kidnapped for just for a month or two. All Leanne has to do is keep the local press and Sherriff focused on the case at hand and off hers. What could go wrong?

Code: Select all

Format                                   : Matroska
File size                                : 3.25 GiB
Duration                                 : 1h 44mn
Overall bit rate                         : 4 474 Kbps

Video
ID                                       : 2
Format                                   : AVC
Format/Info                              : Advanced Video Codec
Format profile                           : Main@L3.1
Format settings, CABAC                   : No
Format settings, ReFrames                : 2 frames
Codec ID                                 : V_MPEG4/ISO/AVC
Duration                                 : 1h 44mn
Bit rate                                 : 4 001 Kbps
Width                                    : 1 280 pixels
Height                                   : 530 pixels
Display aspect ratio                     : 2.40:1
Frame rate mode                          : Constant
Frame rate                               : 23.976 fps
Color space                              : YUV
Chroma subsampling                       : 4:2:0
Bit depth                                : 8 bits
Scan type                                : Progressive
Bits/(Pixel*Frame)                       : 0.246
Stream size                              : 2.91 GiB (89%)
Language                                 : English
Default                                  : Yes
Forced                                   : No
Color primaries                          : BT.709
Transfer characteristics                 : BT.709
Matrix coefficients                      : BT.709
Color range                              : Limited

Audio
ID                                       : 1
Format                                   : AC-3
Format/Info                              : Audio Coding 3
Mode extension                           : CM (complete main)
Format settings, Endianness              : Big
Codec ID                                 : A_AC3
Duration                                 : 1h 44mn
Bit rate mode                            : Constant
Bit rate                                 : 384 Kbps
Channel(s)                               : 6 channels
Channel positions                        : Front: L C R, Side: L R, LFE
Sampling rate                            : 48.0 KHz
Bit depth                                : 16 bits
Compression mode                         : Lossy
Stream size                              : 286 MiB (9%)
Language                                 : English
Default                                  : Yes
Forced                                   : No

Menu
00:00:00.000                             : en:Chapter 1
00:09:53.000                             : en:Chapter 2
00:19:32.000                             : en:Chapter 3
00:28:41.000                             : en:Chapter 4
00:38:41.000                             : en:Chapter 5
00:46:21.000                             : en:Chapter 6
00:55:47.000                             : en:Chapter 7
01:03:26.000                             : en:Chapter 8
01:11:44.000                             : en:Chapter 9
01:20:03.000                             : en:Chapter 10
01:27:40.000                             : en:Chapter 11
01:36:49.000                             : en:Chapter 12
ImageImage

Austin.Found.2017.720p.WEB-DL.H264.AC3-EVO.mkv  [3.25 Gb]

Post Reply

Return to “Non-Retail HD (720p, 810p, 1080p)”