One.Drop.(2016).WEBRip.1080p.AC3.x264-FGT

Encodes in the resolutions 720p, 810p and 1080p, and in irregular HD resolutions, from non-retail (WEB or HDTV) sources, with one or more English audio tracks only. This section does not include animated or TV/documentary films, it does however include black & white movies.
Post Reply
bjorn j
Donator
Donator
Posts: 2921
Joined: Wed Jan 07, 2009 1:49 pm
Has thanked: 24 times
Been thanked: 5754 times

One.Drop.(2016).WEBRip.1080p.AC3.x264-FGT

Post by bjorn j » Tue Jul 04, 2017 1:34 pm

Image

http://www.IMDb.com/title/tt3646592/
Genres: Horror, Thriller

Follows a single mother who wakes up in a medical facility to find that everyone is dead and she's nine months pregnant.

An elevated genre horror film about a single mother who wakes up in a medical facility to find that everyone is dead and she's nine months pregnant. As she struggles to escape she discovers the facility's secret, they've tampered with the boundaries of death and brought people back to life, but those who've returned, have not returned alone.

Code: Select all

One.Drop.2016.1080p.WEB-DL.DD5.1.H264-FGT.mkv
Format                                   : Matroska
File size                                : 3.17 GiB
Duration                                 : 1h 30mn
Overall bit rate                         : 4 999 Kbps
Movie name                               : Blood.Hunters.2016.1080p.WEB-DL.DD5.1.H264-FGT

Video
ID                                       : 1
Format                                   : AVC
Format/Info                              : Advanced Video Codec
Format profile                           : High@L4.0
Format settings, CABAC                   : Yes
Format settings, ReFrames                : 5 frames
Codec ID                                 : V_MPEG4/ISO/AVC
Duration                                 : 1h 30mn
Bit rate                                 : 4 515 Kbps
Width                                    : 1 920 pixels
Height                                   : 792 pixels
Display aspect ratio                     : 2.40:1
Frame rate mode                          : Constant
Frame rate                               : 23.976 fps
Color space                              : YUV
Chroma subsampling                       : 4:2:0
Bit depth                                : 8 bits
Scan type                                : Progressive
Bits/(Pixel*Frame)                       : 0.124
Stream size                              : 2.87 GiB (90%)
Title                                    : Blood.Hunters.2016.1080p.WEB-DL.DD5.1.H264-FGT
Language                                 : English
Default                                  : Yes
Forced                                   : No
Color primaries                          : BT.709
Transfer characteristics                 : BT.709
Matrix coefficients                      : BT.709
Color range                              : Limited

Audio
ID                                       : 2
Format                                   : AC-3
Format/Info                              : Audio Coding 3
Mode extension                           : CM (complete main)
Format settings, Endianness              : Big
Codec ID                                 : A_AC3
Duration                                 : 1h 30mn
Bit rate mode                            : Constant
Bit rate                                 : 384 Kbps
Channel(s)                               : 6 channels
Channel positions                        : Front: L C R, Side: L R, LFE
Sampling rate                            : 48.0 KHz
Bit depth                                : 16 bits
Compression mode                         : Lossy
Delay relative to video                  : -42ms
Stream size                              : 250 MiB (8%)
Title                                    : Blood.Hunters.2016.1080p.WEB-DL.DD5.1.H264-FGT
Language                                 : English
Default                                  : Yes
Forced                                   : No

Text
ID                                       : 3
Format                                   : UTF-8
Codec ID                                 : S_TEXT/UTF8
Codec ID/Info                            : UTF-8 Plain Text
Language                                 : English
Default                                  : Yes
Forced                                   : No

Menu
00:00:00.000                             : en:Opening Sequence
00:07:00.000                             : en:Get Me Out Of Here
00:12:56.000                             : en:Is There Anyone?
00:19:27.000                             : en:My Water Broke
00:25:08.000                             : en:There Is No Next
00:29:08.000                             : en:Everything To Survive
00:35:29.000                             : en:God Is With Us
00:41:12.000                             : en:Hunter Is My Son
00:47:41.000                             : en:I Overloaded The Circuits
00:53:12.000                             : en:Quick Or She Dies
01:00:39.000                             : en:To Finish What You Started
01:05:56.000                             : en:I'll Take Care Of You
01:09:48.000                             : en:Back Off
01:15:36.000                             : en:It's The Medicine
01:20:24.000                             : en:To Have Faith
01:26:23.000                             : en:End Credits
Image

One.Drop.2016.1080p.WEB-DL.DD5.1.H264-FGT.mkv  [3.17 Gb]

Post Reply

Return to “Non-Retail HD (720p, 810p, 1080p)”