The.Deep.End.(2016).WEBRip.1080p.AC3.x264-FGT

Encodes in the resolutions 720p, 810p and 1080p, and in irregular HD resolutions, from non-retail (WEB or HDTV) sources, with one or more English audio tracks only. This section does not include animated or TV/documentary films, it does however include black & white movies.
Post Reply
bjorn j
Donator
Donator
Posts: 2920
Joined: Wed Jan 07, 2009 1:49 pm
Has thanked: 24 times
Been thanked: 5752 times

The.Deep.End.(2016).WEBRip.1080p.AC3.x264-FGT

Post by bjorn j » Tue Jun 20, 2017 11:37 am

Image

http://www.IMDb.com/title/tt5143226/
Genre: Thriller

Inspired by true events, two sisters are trapped under the fiberglass cover of an Olympic sized public pool and must brave the cold and each other to survive the harrowing night.

Code: Select all

General
Format                                   : Matroska
Format version                           : Version 4 / Version 2
File size                                : 3.20 GiB
Duration                                 : 1h 25mn
Overall bit rate                         : 5 371 Kbps
Movie name                               : 12.Feet.Deep.2016.1080p.WEB-DL.DD5.1.H264-FGT

Video
ID                                       : 1
Format                                   : AVC
Format/Info                              : Advanced Video Codec
Format profile                           : High@L4.0
Format settings, CABAC                   : Yes
Format settings, ReFrames                : 4 frames
Format settings, GOP                     : N=1
Codec ID                                 : V_MPEG4/ISO/AVC
Duration                                 : 1h 25mn
Bit rate                                 : 4 880 Kbps
Width                                    : 1 904 pixels
Height                                   : 1 064 pixels
Display aspect ratio                     : 16:9
Frame rate mode                          : Constant
Frame rate                               : 23.976 fps
Color space                              : YUV
Chroma subsampling                       : 4:2:0
Bit depth                                : 8 bits
Scan type                                : Progressive
Bits/(Pixel*Frame)                       : 0.100
Stream size                              : 2.91 GiB (91%)
Title                                    : 12.Feet.Deep.2016.1080p.WEB-DL.DD5.1.H264-FGT
Language                                 : English
Default                                  : Yes
Forced                                   : No
Color primaries                          : BT.709
Transfer characteristics                 : BT.709
Matrix coefficients                      : BT.709
Color range                              : Limited

Audio
ID                                       : 2
Format                                   : AC-3
Format/Info                              : Audio Coding 3
Mode extension                           : CM (complete main)
Format settings, Endianness              : Big
Codec ID                                 : A_AC3
Duration                                 : 1h 25mn
Bit rate mode                            : Constant
Bit rate                                 : 384 Kbps
Channel(s)                               : 6 channels
Channel positions                        : Front: L C R, Side: L R, LFE
Sampling rate                            : 48.0 KHz
Bit depth                                : 16 bits
Compression mode                         : Lossy
Delay relative to video                  : -42ms
Stream size                              : 235 MiB (7%)
Title                                    : 12.Feet.Deep.2016.1080p.WEB-DL.DD5.1.H264-FGT
Language                                 : English
Default                                  : Yes
Forced                                   : No

Text
ID                                       : 3
Format                                   : UTF-8
Codec ID                                 : S_TEXT/UTF8
Codec ID/Info                            : UTF-8 Plain Text
Language                                 : English
Default                                  : Yes
Forced                                   : No

Menu
00:00:00.000                             : en:Chapter 1
00:10:02.602                             : en:Chapter 2
00:21:21.280                             : en:Chapter 3
00:29:37.776                             : en:Chapter 4
00:41:23.481                             : en:Chapter 5
00:50:10.007                             : en:Chapter 6
00:59:41.578                             : en:Chapter 7
01:09:51.187                             : en:Chapter 8
01:21:21.877                             : en:Chapter 9
Image

The.Deep.End.2016.1080p.WEB-DL.DD5.1.H264-FGT.mkv  [3.20 Gb]

Post Reply

Return to “Non-Retail HD (720p, 810p, 1080p)”