Heartland.(2017).WEBRip.1080p.AC3.x264-FGT

Encodes in the resolutions 720p, 810p and 1080p, and in irregular HD resolutions, from non-retail (WEB or HDTV) sources, with one or more English audio tracks only. This section does not include animated or TV/documentary films, it does however include black & white movies.
Post Reply
bjorn j
Donator
Donator
Posts: 2920
Joined: Wed Jan 07, 2009 1:49 pm
Has thanked: 24 times
Been thanked: 5752 times

Heartland.(2017).WEBRip.1080p.AC3.x264-FGT

Post by bjorn j » Tue Jun 06, 2017 3:48 pm

Image

http://www.IMDb.com/title/tt3920890/
Genres: Romance, Drama

A young Oklahoma artist, struggling with a recent death, finds escape in a reckless affair with her brother's girlfriend.

Code: Select all

General
Format                                   : Matroska
Format version                           : Version 4 / Version 2
File size                                : 3.49 GiB
Duration                                 : 1h 40mn
Overall bit rate                         : 4 987 Kbps

Video
ID                                       : 1
Format                                   : AVC
Format/Info                              : Advanced Video Codec
Format profile                           : High@L4.0
Format settings, CABAC                   : Yes
Format settings, ReFrames                : 5 frames
Codec ID                                 : V_MPEG4/ISO/AVC
Duration                                 : 1h 40mn
Bit rate                                 : 4 504 Kbps
Width                                    : 1 912 pixels
Height                                   : 792 pixels
Display aspect ratio                     : 2.40:1
Frame rate mode                          : Constant
Frame rate                               : 23.976 fps
Color space                              : YUV
Chroma subsampling                       : 4:2:0
Bit depth                                : 8 bits
Scan type                                : Progressive
Bits/(Pixel*Frame)                       : 0.124
Stream size                              : 3.15 GiB (90%)
Title                                    : Heartland.2017.1080p.WEB-DL.DD5.1.H264-FGT
Language                                 : English
Default                                  : Yes
Forced                                   : No
Color primaries                          : BT.709
Transfer characteristics                 : BT.709
Matrix coefficients                      : BT.709
Color range                              : Limited

Audio
ID                                       : 2
Format                                   : AC-3
Format/Info                              : Audio Coding 3
Mode extension                           : CM (complete main)
Format settings, Endianness              : Big
Codec ID                                 : A_AC3
Duration                                 : 1h 40mn
Bit rate mode                            : Constant
Bit rate                                 : 384 Kbps
Channel(s)                               : 6 channels
Channel positions                        : Front: L C R, Side: L R, LFE
Sampling rate                            : 48.0 KHz
Bit depth                                : 16 bits
Compression mode                         : Lossy
Stream size                              : 275 MiB (8%)
Title                                    : Heartland.2017.1080p.WEB-DL.DD5.1.H264-FGT
Language                                 : English
Default                                  : Yes
Forced                                   : No

Text
ID                                       : 3
Format                                   : UTF-8
Codec ID                                 : S_TEXT/UTF8
Codec ID/Info                            : UTF-8 Plain Text
Language                                 : English
Default                                  : Yes
Forced                                   : No

Menu
00:00:00.000                             : en:1
00:01:55.000                             : en:2
00:13:50.000                             : en:3
00:25:23.000                             : en:4
00:36:45.000                             : en:5
00:48:47.000                             : en:6
01:00:39.000                             : en:7
01:12:39.000                             : en:8
01:24:38.000                             : en:9
01:36:26.000                             : en:10
Image

Heartland.2017.1080p.WEB-DL.DD5.1.H264-FGT.mkv  [3.49 Gb]

Post Reply

Return to “Non-Retail HD (720p, 810p, 1080p)”