200.Degrees.(2017).WEBRip.1080p.AC3.x264-FGT

Encodes in the resolutions 720p, 810p and 1080p, and in irregular HD resolutions, from non-retail (WEB or HDTV) sources, with one or more English audio tracks only. This section does not include animated or TV/documentary films, it does however include black & white movies.
Post Reply
bjorn j
Donator
Donator
Posts: 2920
Joined: Wed Jan 07, 2009 1:49 pm
Has thanked: 24 times
Been thanked: 5752 times

200.Degrees.(2017).WEBRip.1080p.AC3.x264-FGT

Post by bjorn j » Tue Jun 06, 2017 3:42 pm

Image

http://www.IMDb.com/title/tt4762592/
Genre: Thriller

Ryan Hinds awakes inside a sealed industrial kiln. He is set challenges by a voice with no face, pushed to the limits of human endurance as the temperature within the kiln begins to rise.

Stock broker Ryan Hinds (Eric Balfour) awakes inside a sealed industrial kiln. A mysterious voice sets out a seemingly impossible task: deliver one million dollars in two hours or the temperature in the kiln will rise until Ryan is burned alive. Armed only with his cell phone, Ryan must find a way to deliver the money and survive the manipulations of a sadistic killer

Code: Select all

General
Format                                   : Matroska
Format version                           : Version 4 / Version 2
File size                                : 3.61 GiB
Duration                                 : 1h 31mn
Overall bit rate                         : 5 656 Kbps

Video
ID                                       : 1
Format                                   : AVC
Format/Info                              : Advanced Video Codec
Format profile                           : High@L4.0
Format settings, CABAC                   : Yes
Format settings, ReFrames                : 4 frames
Codec ID                                 : V_MPEG4/ISO/AVC
Duration                                 : 1h 31mn
Bit rate                                 : 5 160 Kbps
Width                                    : 1 908 pixels
Height                                   : 1 068 pixels
Display aspect ratio                     : 16:9
Frame rate mode                          : Constant
Frame rate                               : 23.976 fps
Color space                              : YUV
Chroma subsampling                       : 4:2:0
Bit depth                                : 8 bits
Scan type                                : Progressive
Bits/(Pixel*Frame)                       : 0.106
Stream size                              : 3.29 GiB (91%)
Title                                    : 200.Degrees.2017.1080p.WEB-DL.DD5.1.H264-FGT
Language                                 : English
Default                                  : Yes
Forced                                   : No
Color primaries                          : BT.709
Transfer characteristics                 : BT.709
Matrix coefficients                      : BT.709
Color range                              : Limited

Audio
ID                                       : 2
Format                                   : AC-3
Format/Info                              : Audio Coding 3
Mode extension                           : CM (complete main)
Format settings, Endianness              : Big
Codec ID                                 : A_AC3
Duration                                 : 1h 31mn
Bit rate mode                            : Constant
Bit rate                                 : 384 Kbps
Channel(s)                               : 6 channels
Channel positions                        : Front: L C R, Side: L R, LFE
Sampling rate                            : 48.0 KHz
Bit depth                                : 16 bits
Compression mode                         : Lossy
Delay relative to video                  : -42ms
Stream size                              : 251 MiB (7%)
Title                                    : 200.Degrees.2017.1080p.WEB-DL.DD5.1.H264-FGT
Language                                 : English
Default                                  : Yes
Forced                                   : No

Text
ID                                       : 3
Format                                   : UTF-8
Codec ID                                 : S_TEXT/UTF8
Codec ID/Info                            : UTF-8 Plain Text
Language                                 : English
Default                                  : Yes
Forced                                   : No

Menu
00:00:00.000                             : en:1
00:02:31.000                             : en:2
00:11:15.000                             : en:3
00:21:55.000                             : en:4
00:31:22.000                             : en:5
00:42:07.000                             : en:6
00:53:05.000                             : en:7
01:00:17.000                             : en:8
01:14:22.000                             : en:9
01:28:31.000                             : en:10
Image

200.Degrees.2017.1080p.WEB-DL.DD5.1.H264-FGT.mkv  [3.61 Gb]

Post Reply

Return to “Non-Retail HD (720p, 810p, 1080p)”