Prisoner.X.(2016).WEBRip.1080p.AC3.x264-FGT

Encodes in the resolutions 720p, 810p and 1080p, and in irregular HD resolutions, from non-retail (WEB or HDTV) sources, with one or more English audio tracks only. This section does not include animated or TV/documentary films, it does however include black & white movies.
Post Reply
bjorn j
Donator
Donator
Posts: 2701
Joined: Wed Jan 07, 2009 1:49 pm
Has thanked: 33 times
Been thanked: 6027 times

Prisoner.X.(2016).WEBRip.1080p.AC3.x264-FGT

Post by bjorn j » Tue Jun 06, 2017 6:44 am

Image

http://www.IMDb.com/title/tt4206228/
Genres: Sci-Fi, Thriller

As the world rages in war and civil strife, a CIA agent arrives at a secret underground prison to interrogate a time-traveling terrorist, who she believes is responsible for the unfolding catastrophe.

On a cold February night, a young man is found unconscious at the wheel of a crashed vehicle in Montana not far from the Canadian border and a lump of weapons-grade Uranium is recovered from the trunk. He is immediately thrown into a high-security prison and tortured relentlessly for months. But apart from a few vicious-sounding curses in an unknown language, he utters nothing. Then one day out of the blue, he gives his interrogators a list of numbers and letters, which turn out to be astronomical coordinates of upcoming Supernova explosions. The very next day the first of those celestial events occurs exactly as predicted, sending shock-waves through the security establishment. It's obvious; the man in custody is no ordinary terrorist. He is a time-traveller from the future. Fifteen years later, RAMIRO still sits in the same secret prison two kilometres under the ground, but much has changed in the world above. Based on the information he has provided over the years, the US has waged...

Code: Select all

General
Format                                   : Matroska
Format version                           : Version 4 / Version 2
File size                                : 3.25 GiB
Duration                                 : 1h 28mn
Overall bit rate                         : 5 274 Kbps

Video
ID                                       : 1
Format                                   : AVC
Format/Info                              : Advanced Video Codec
Format profile                           : High@L4.0
Format settings, CABAC                   : Yes
Format settings, ReFrames                : 4 frames
Codec ID                                 : V_MPEG4/ISO/AVC
Duration                                 : 1h 28mn
Bit rate                                 : 4 785 Kbps
Width                                    : 1 912 pixels
Height                                   : 1 080 pixels
Display aspect ratio                     : 16:9
Frame rate mode                          : Constant
Frame rate                               : 23.976 fps
Color space                              : YUV
Chroma subsampling                       : 4:2:0
Bit depth                                : 8 bits
Scan type                                : Progressive
Bits/(Pixel*Frame)                       : 0.097
Stream size                              : 2.95 GiB (91%)
Title                                    : Prisoner.X.2016.1080p.WEB-DL.DD5.1.H264-FGT
Language                                 : English
Default                                  : Yes
Forced                                   : No
Color primaries                          : BT.709
Transfer characteristics                 : BT.709
Matrix coefficients                      : BT.709
Color range                              : Limited

Audio
ID                                       : 2
Format                                   : AC-3
Format/Info                              : Audio Coding 3
Mode extension                           : CM (complete main)
Format settings, Endianness              : Big
Codec ID                                 : A_AC3
Duration                                 : 1h 28mn
Bit rate mode                            : Constant
Bit rate                                 : 384 Kbps
Channel(s)                               : 6 channels
Channel positions                        : Front: L C R, Side: L R, LFE
Sampling rate                            : 48.0 KHz
Bit depth                                : 16 bits
Compression mode                         : Lossy
Delay relative to video                  : -42ms
Stream size                              : 242 MiB (7%)
Title                                    : Prisoner.X.2016.1080p.WEB-DL.DD5.1.H264-FGT
Language                                 : English
Default                                  : Yes
Forced                                   : No

Text
ID                                       : 3
Format                                   : UTF-8
Codec ID                                 : S_TEXT/UTF8
Codec ID/Info                            : UTF-8 Plain Text
Language                                 : English
Default                                  : Yes
Forced                                   : No

Menu
00:00:00.000                             : en:Opening Sequence
00:05:29.000                             : en:A Far Bigger Problem
00:11:14.000                             : en:Are You Okay?
00:16:50.000                             : en:Help
00:22:08.000                             : en:Fischer And Ramiro
00:27:43.000                             : en:Three In The Morning
00:33:21.000                             : en:Kashmir River
00:38:43.000                             : en:What Is It?
00:44:24.000                             : en:That's Where I'm From
00:50:17.000                             : en:Are You Sure?
00:55:06.000                             : en:They Lied To You
01:00:56.000                             : en:Mr. President
01:06:14.000                             : en:The Greatest Weapon
01:11:56.000                             : en:Cell A
01:17:40.000                             : en:Dying A Slow Death
01:23:38.000                             : en:End Credits
Image

Prisoner.X.2016.1080p.WEB-DL.DD5.1.H264-FGT.mkv  [3.25 Gb]

Post Reply

Return to “Non-Retail HD (720p, 810p, 1080p)”