AWOL.(2016).WEBRip.1080p.AC3.x264-FGT

Encodes in the resolutions 720p, 810p and 1080p, and in irregular HD resolutions, from non-retail (WEB or HDTV) sources, with one or more English audio tracks only. This section does not include animated or TV/documentary films, it does however include black & white movies.
Post Reply
bjorn j
Donator
Donator
Posts: 2924
Joined: Wed Jan 07, 2009 1:49 pm
Has thanked: 24 times
Been thanked: 5753 times

AWOL.(2016).WEBRip.1080p.AC3.x264-FGT

Post by bjorn j » Mon Jun 05, 2017 11:41 pm

Image

http://www.IMDb.com/title/tt4462372/
Genres: Drama, Romance

Joey is a young woman in search of direction in her small town. A visit to an army recruiting office appears to provide a path, but when she meets and falls in love with Rayna, that path diverges in ways that neither woman anticipates.

Code: Select all

General
Format                                   : Matroska
Format version                           : Version 4 / Version 2
File size                                : 3.11 GiB
Duration                                 : 1h 22mn
Overall bit rate                         : 5 419 Kbps
Movie name                               : AWOL.2016.1080p.WEB-DL.DD5.1.H264-FGT

Video
ID                                       : 1
Format                                   : AVC
Format/Info                              : Advanced Video Codec
Format profile                           : High@L4.0
Format settings, CABAC                   : Yes
Format settings, ReFrames                : 4 frames
Codec ID                                 : V_MPEG4/ISO/AVC
Duration                                 : 1h 22mn
Bit rate                                 : 4 927 Kbps
Width                                    : 1 920 pixels
Height                                   : 1 038 pixels
Display aspect ratio                     : 1.85:1
Frame rate mode                          : Constant
Frame rate                               : 23.976 fps
Color space                              : YUV
Chroma subsampling                       : 4:2:0
Bit depth                                : 8 bits
Scan type                                : Progressive
Bits/(Pixel*Frame)                       : 0.103
Stream size                              : 2.83 GiB (91%)
Title                                    : AWOL.2016.1080p.WEB-DL.DD5.1.H264-FGT
Language                                 : English
Default                                  : Yes
Forced                                   : No
Color primaries                          : BT.709
Transfer characteristics                 : BT.709
Matrix coefficients                      : BT.709
Color range                              : Limited

Audio
ID                                       : 2
Format                                   : AC-3
Format/Info                              : Audio Coding 3
Mode extension                           : CM (complete main)
Format settings, Endianness              : Big
Codec ID                                 : A_AC3
Duration                                 : 1h 22mn
Bit rate mode                            : Constant
Bit rate                                 : 384 Kbps
Channel(s)                               : 6 channels
Channel positions                        : Front: L C R, Side: L R, LFE
Sampling rate                            : 48.0 KHz
Bit depth                                : 16 bits
Compression mode                         : Lossy
Delay relative to video                  : -42ms
Stream size                              : 225 MiB (7%)
Title                                    : AWOL.2016.1080p.WEB-DL.DD5.1.H264-FGT
Language                                 : English
Default                                  : Yes
Forced                                   : No

Text
ID                                       : 3
Format                                   : UTF-8
Codec ID                                 : S_TEXT/UTF8
Codec ID/Info                            : UTF-8 Plain Text
Language                                 : English
Default                                  : Yes
Forced                                   : No

Menu
00:00:00.000                             : en:Chapter One
00:15:00.000                             : en:Chapter Two
00:30:00.000                             : en:Chapter Three
00:45:00.000                             : en:Chapter Four
01:00:00.000                             : en:Chapter Five
01:15:00.000                             : en:Chapter Six
Image

AWOL.2016.1080p.WEB-DL.DD5.1.H264-FGT.mkv  [3.11 Gb]

Post Reply

Return to “Non-Retail HD (720p, 810p, 1080p)”