Be.Afraid.(2017).WEBRip.1080p.AC3.x264-FGT

Encodes in the resolutions 720p, 810p and 1080p, and in irregular HD resolutions, from non-retail (WEB or HDTV) sources, with one or more English audio tracks only. This section does not include animated or TV/documentary films, it does however include black & white movies.
Post Reply
bjorn j
Donator
Donator
Posts: 2920
Joined: Wed Jan 07, 2009 1:49 pm
Has thanked: 24 times
Been thanked: 5752 times

Be.Afraid.(2017).WEBRip.1080p.AC3.x264-FGT

Post by bjorn j » Thu Jun 01, 2017 5:12 pm

Image

http://www.IMDb.com/title/tt3311020/
Genres: Horror, Sci-Fi, Thriller

Not long after John Chambers and his family arrive at their new home in a small country town of Pennsylvania, John begins to experience sleep paralysis. Lying there paralyzed, trapped within his own nightmare, other-worldly beings visit John. They are entities which exist in the darkest shadows of the night and can only be seen out of the corner of one's eye. These encounters begin to haunt John, transforming to complete terror as he discovers the entities' sole purpose... the abduction of his seven year old son. In the end, John will uncover the town's horrific secret, a portal on his land, and make one last attempt to save his son before the shadow people permanently take him away to their world.

Code: Select all

Video
ID                                       : 1
Format                                   : AVC
Format/Info                              : Advanced Video Codec
Format profile                           : High@L4
Format settings, CABAC                   : Yes
Format settings, ReFrames                : 4 frames
Codec ID                                 : V_MPEG4/ISO/AVC
Duration                                 : 1h 36mn
Bit rate                                 : 5 090 Kbps
Width                                    : 1 920 pixels
Height                                   : 1 080 pixels
Display aspect ratio                     : 16:9
Frame rate mode                          : Constant
Frame rate                               : 23.976 (24000/1001) fps
Color space                              : YUV
Chroma subsampling                       : 4:2:0
Bit depth                                : 8 bits
Scan type                                : Progressive
Bits/(Pixel*Frame)                       : 0.102
Stream size                              : 3.41 GiB (91%)
Title                                    : Be.Afraid.2017.1080p.WEB-DL.DD5.1.H264-FGT
Language                                 : English
Default                                  : Yes
Forced                                   : No
Color range                              : Limited
Color primaries                          : BT.709
Transfer characteristics                 : BT.709
Matrix coefficients                      : BT.709

Audio
ID                                       : 2
Format                                   : AC-3
Format/Info                              : Audio Coding 3
Mode extension                           : CM (complete main)
Format settings, Endianness              : Big
Codec ID                                 : A_AC3
Duration                                 : 1h 36mn
Bit rate mode                            : Constant
Bit rate                                 : 384 Kbps
Channel(s)                               : 6 channels
Channel positions                        : Front: L C R, Side: L R, LFE
Sampling rate                            : 48.0 KHz
Frame rate                               : 31.250 fps (1536 spf)
Compression mode                         : Lossy
Delay relative to video                  : -42ms
Stream size                              : 264 MiB (7%)
Title                                    : Be.Afraid.2017.1080p.WEB-DL.DD5.1.H264-FGT
Language                                 : English
Default                                  : Yes
Forced                                   : No

Text
ID                                       : 3
Format                                   : UTF-8
Codec ID                                 : S_TEXT/UTF8
Codec ID/Info                            : UTF-8 Plain Text
Language                                 : English
Default                                  : Yes
Forced                                   : No

Menu
00:00:00.000                             : en:Opening Sequence
00:07:17.000                             : en:Found The Woods
00:15:43.000                             : en:No One Got Hurt
00:23:29.000                             : en:That Was You
00:31:57.000                             : en:In Shock
00:39:09.000                             : en:All Covered In Black
00:47:43.000                             : en:Whatever It Takes
00:56:24.000                             : en:A Man Is Coming
01:05:34.000                             : en:Some Kind Of Prank
01:13:15.000                             : en:I've Seen Them
01:21:27.000                             : en:I Had No Choice
01:30:13.000                             : en:End Credits
Image

Be.Afraid.2017.1080p.WEB-DL.DD5.1.H264-FGT.mkv  [3.75 Gb]

Post Reply

Return to “Non-Retail HD (720p, 810p, 1080p)”