Evil.Nanny.(2016).WEBRip.1080p.AC3.x264-FGT

Encodes in the resolutions 720p, 810p and 1080p, and in irregular HD resolutions, from non-retail (WEB or HDTV) sources, with one or more English audio tracks only. This section does not include animated or TV/documentary films, it does however include black & white movies.
Post Reply
bjorn j
Donator
Donator
Posts: 2920
Joined: Wed Jan 07, 2009 1:49 pm
Has thanked: 24 times
Been thanked: 5752 times

Evil.Nanny.(2016).WEBRip.1080p.AC3.x264-FGT

Post by bjorn j » Tue May 16, 2017 11:45 pm

Image

http://www.IMDb.com/title/tt6354166/
Genre: Thriller

A couple hires a live-in nanny to watch the offspring while they work. At first, everything goes perfectly, but when an unsafe incident means the parents no longer want the nanny around, they find out this nanny is savvy at not being evicted from her live-in situation. So savvy, in fact, that she can make these parents' lives a true nightmare.

Code: Select all

Video
ID                                       : 1
Format                                   : AVC
Format/Info                              : Advanced Video Codec
Format profile                           : High@L4.0
Format settings, CABAC                   : Yes
Format settings, ReFrames                : 4 frames
Codec ID                                 : V_MPEG4/ISO/AVC
Duration                                 : 1h 30mn
Bit rate                                 : 5 148 Kbps
Width                                    : 1 912 pixels
Height                                   : 1 072 pixels
Display aspect ratio                     : 16:9
Frame rate mode                          : Constant
Frame rate                               : 23.976 fps
Color space                              : YUV
Chroma subsampling                       : 4:2:0
Bit depth                                : 8 bits
Scan type                                : Progressive
Bits/(Pixel*Frame)                       : 0.105
Stream size                              : 3.25 GiB (91%)
Title                                    : Evil.Nanny.2016.1080p.WEB-DL.DD5.1.H264-FGT
Language                                 : English
Default                                  : Yes
Forced                                   : No
Color primaries                          : BT.709
Transfer characteristics                 : BT.709
Matrix coefficients                      : BT.709
Color range                              : Limited

Audio
ID                                       : 2
Format                                   : AC-3
Format/Info                              : Audio Coding 3
Mode extension                           : CM (complete main)
Format settings, Endianness              : Big
Codec ID                                 : A_AC3
Duration                                 : 1h 30mn
Bit rate mode                            : Constant
Bit rate                                 : 384 Kbps
Channel(s)                               : 6 channels
Channel positions                        : Front: L C R, Side: L R, LFE
Sampling rate                            : 48.0 KHz
Bit depth                                : 16 bits
Compression mode                         : Lossy
Delay relative to video                  : -42ms
Stream size                              : 248 MiB (7%)
Title                                    : Evil.Nanny.2016.1080p.WEB-DL.DD5.1.H264-FGT
Language                                 : English
Default                                  : Yes
Forced                                   : No

Text
ID                                       : 3
Format                                   : UTF-8
Codec ID                                 : S_TEXT/UTF8
Codec ID/Info                            : UTF-8 Plain Text
Language                                 : English
Default                                  : Yes
Forced                                   : No

Menu
00:00:00.000                             : en:Chapter 1
00:11:16.000                             : en:Chapter 2
00:20:18.000                             : en:Chapter 3
00:33:00.000                             : en:Chapter 4
00:42:01.000                             : en:Chapter 5
00:52:08.000                             : en:Chapter 6
01:02:41.000                             : en:Chapter 7
01:10:00.000                             : en:Chapter 8
01:26:37.000                             : en:Chapter 9
Image

Evil.Nanny.2016.1080p.WEB-DL.DD5.1.H264-FGT.mkv  [3.56 Gb]

Post Reply

Return to “Non-Retail HD (720p, 810p, 1080p)”