Tracktown.(2016).WEBRip.1080p.AC3.x264-FGT

Encodes in the resolutions 720p, 810p and 1080p, and in irregular HD resolutions, from non-retail (WEB or HDTV) sources, with one or more English audio tracks only. This section does not include animated or TV/documentary films, it does however include black & white movies.
Post Reply
bjorn j
Donator
Donator
Posts: 2921
Joined: Wed Jan 07, 2009 1:49 pm
Has thanked: 24 times
Been thanked: 5754 times

Tracktown.(2016).WEBRip.1080p.AC3.x264-FGT

Post by bjorn j » Fri May 12, 2017 4:32 pm

Image

http://www.IMDb.com/title/tt5750534/
Genres: Drama, Sport

A young, talented, and lonely long-distance runner twists her ankle as she prepares for the Olympic Trials and must do something she's never done before: take a day off.

Code: Select all

Video
ID                                       : 1
Format                                   : AVC
Format/Info                              : Advanced Video Codec
Format profile                           : High@L4
Format settings, CABAC                   : Yes
Format settings, ReFrames                : 5 frames
Codec ID                                 : V_MPEG4/ISO/AVC
Duration                                 : 1h 28mn
Bit rate                                 : 4 504 Kbps
Width                                    : 1 904 pixels
Height                                   : 800 pixels
Display aspect ratio                     : 2.40:1
Frame rate mode                          : Constant
Frame rate                               : 23.976 (24000/1001) fps
Color space                              : YUV
Chroma subsampling                       : 4:2:0
Bit depth                                : 8 bits
Scan type                                : Progressive
Bits/(Pixel*Frame)                       : 0.123
Stream size                              : 2.79 GiB (90%)
Title                                    : Tracktown.2016.1080p.WEB-DL.DD5.1.H264-FGT
Language                                 : English
Default                                  : Yes
Forced                                   : No
Color range                              : Limited
Color primaries                          : BT.709
Transfer characteristics                 : BT.709
Matrix coefficients                      : BT.709

Audio
ID                                       : 2
Format                                   : AC-3
Format/Info                              : Audio Coding 3
Mode extension                           : CM (complete main)
Format settings, Endianness              : Big
Codec ID                                 : A_AC3
Duration                                 : 1h 28mn
Bit rate mode                            : Constant
Bit rate                                 : 384 Kbps
Channel(s)                               : 6 channels
Channel positions                        : Front: L C R, Side: L R, LFE
Sampling rate                            : 48.0 KHz
Frame rate                               : 31.250 fps (1536 spf)
Compression mode                         : Lossy
Stream size                              : 243 MiB (8%)
Title                                    : Tracktown.2016.1080p.WEB-DL.DD5.1.H264-FGT
Language                                 : English
Default                                  : Yes
Forced                                   : No

Text
ID                                       : 3
Format                                   : UTF-8
Codec ID                                 : S_TEXT/UTF8
Codec ID/Info                            : UTF-8 Plain Text
Language                                 : English
Default                                  : Yes
Forced                                   : No

Menu
00:00:00.000                             : en:Chapter 1
00:09:08.548                             : en:Chapter 2
00:19:20.159                             : en:Chapter 3
00:29:38.777                             : en:Chapter 4
00:40:44.442                             : en:Chapter 5
00:50:42.039                             : en:Chapter 6
00:59:30.567                             : en:Chapter 7
01:09:43.179                             : en:Chapter 8
01:20:08.804                             : en:Chapter 9
01:23:47.022                             : en:Chapter 10
Image

Tracktown.2016.1080p.WEB-DL.DD5.1.H264-FGT.mkv  [3.08 Gb]

Post Reply

Return to “Non-Retail HD (720p, 810p, 1080p)”