Suck.It.Up.(2017).WEBRip.1080p.AC3.x264-FGT

Encodes in the resolutions 720p, 810p and 1080p, and in irregular HD resolutions, from non-retail (WEB or HDTV) sources, with one or more English audio tracks only. This section does not include animated or TV/documentary films, it does however include black & white movies.
Post Reply
bjorn j
Donator
Donator
Posts: 2781
Joined: Wed Jan 07, 2009 1:49 pm
Has thanked: 28 times
Been thanked: 5556 times

Suck.It.Up.(2017).WEBRip.1080p.AC3.x264-FGT

Post by bjorn j » Fri Jan 05, 2018 6:30 pm

Image

http://www.IMDb.com/title/tt6079702/
Genres: Comedy, Drama

Ronnie lost her brother, Faye lost her first love. These two best friends take off on a debaucherous road trip to the mountains to get over the death of the guy they both loved.

Code: Select all

Video
ID                                       : 1
Format                                   : AVC
Format/Info                              : Advanced Video Codec
Format profile                           : High@L4
Format settings                          : CABAC / 5 Ref Frames
Format settings, CABAC                   : Yes
Format settings, RefFrames               : 5 frames
Codec ID                                 : V_MPEG4/ISO/AVC
Duration                                 : 1 h 43 min
Bit rate                                 : 4 537 kb/s
Width                                    : 1 920 pixels
Height                                   : 800 pixels
Display aspect ratio                     : 2.40:1
Frame rate mode                          : Constant
Frame rate                               : 23.976 (23976/1000) FPS
Color space                              : YUV
Chroma subsampling                       : 4:2:0
Bit depth                                : 8 bits
Scan type                                : Progressive
Bits/(Pixel*Frame)                       : 0.123
Stream size                              : 3.27 GiB (92%)
Title                                    : Suck.It.Up.2017.1080p.WEB-DL.DD5.1.H264-FGT
Language                                 : English
Default                                  : Yes
Forced                                   : No
Color range                              : Limited
Color primaries                          : BT.709
Transfer characteristics                 : BT.709
Matrix coefficients                      : BT.709

Audio
ID                                       : 2
Format                                   : AC-3
Format/Info                              : Audio Coding 3
Codec ID                                 : A_AC3
Duration                                 : 1 h 43 min
Bit rate mode                            : Constant
Bit rate                                 : 384 kb/s
Channel(s)                               : 6 channels
Channel positions                        : Front: L C R, Side: L R, LFE
Sampling rate                            : 48.0 kHz
Frame rate                               : 31.250 FPS (1536 SPF)
Bit depth                                : 16 bits
Compression mode                         : Lossy
Delay relative to video                  : -42 ms
Stream size                              : 284 MiB (8%)
Title                                    : Suck.It.Up.2017.1080p.WEB-DL.DD5.1.H264-FGT
Language                                 : English
Service kind                             : Complete Main
Default                                  : Yes
Forced                                   : No

Text
ID                                       : 3
Format                                   : UTF-8
Codec ID                                 : S_TEXT/UTF8
Codec ID/Info                            : UTF-8 Plain Text
Duration                                 : 1 h 37 min
Bit rate                                 : 40 b/s
Count of elements                        : 1162
Stream size                              : 29.1 KiB (0%)
Language                                 : English
Default                                  : Yes
Forced                                   : No

Menu
00:00:00.000                             : en:Chapter 01
00:09:15.000                             : en:Chapter 02
00:17:36.000                             : en:Chapter 03
00:28:33.000                             : en:Chapter 04
00:36:52.000                             : en:Chapter 05
00:46:37.000                             : en:Chapter 06
00:57:05.000                             : en:Chapter 07
01:05:31.000                             : en:Chapter 08
01:14:52.000                             : en:Chapter 09
01:25:08.000                             : en:Chapter 10
01:38:57.000                             : en:Chapter 11
Image

Suck.It.Up.2017.1080p.WEB-DL.DD5.1.H264-FGT.mkv  [3.55 Gb]

Post Reply

Return to “Non-Retail HD (720p, 810p, 1080p)”