Slumber.(2017).WEBRip.1080p.AC3.x264-FGT

Encodes in the resolutions 720p, 810p and 1080p, and in irregular HD resolutions, from non-retail (WEB or HDTV) sources, with one or more English audio tracks only. This section does not include animated or TV/documentary films, it does however include black & white movies.
Post Reply
bjorn j
Donator
Donator
Posts: 3330
Joined: Wed Jan 07, 2009 1:49 pm
Has thanked: 26 times
Been thanked: 5371 times

Slumber.(2017).WEBRip.1080p.AC3.x264-FGT

Post by bjorn j » Sat Dec 02, 2017 1:03 am

Image

http://www.IMDb.com/title/tt5181852/
Genre: Horror

A sleep doctor tries to protect a family from a demon that feeds on people in their nightmares.

Alice is a rational-minded sleep doctor, haunted by the mysterious nocturnal death of her younger brother. Whilst performing a routine examination on a traumatized family with sleeping problems, Alice is attacked by the father in his sleep. The father is arrested and blamed for causing the family's sleep issues, but when he is thrown into jail and the problems get progressively worse, Alice is forced to abandon scientific rationale and accept that the family is being terrorized by a parasitic demon who feeds on the weak whilst they sleep: the Night Hag. In order to defeat the dark spirit who was also responsible for her brother's death, Alice must journey into her own nightmares and confront her childhood demons.

Code: Select all

Video
ID                                       : 1
Format                                   : AVC
Format/Info                              : Advanced Video Codec
Format profile                           : High@L4.0
Format settings, CABAC                   : Yes
Format settings, ReFrames                : 5 frames
Codec ID                                 : V_MPEG4/ISO/AVC
Duration                                 : 1h 24mn
Bit rate                                 : 4 430 Kbps
Width                                    : 1 920 pixels
Height                                   : 800 pixels
Display aspect ratio                     : 2.40:1
Frame rate mode                          : Constant
Frame rate                               : 23.976 fps
Color space                              : YUV
Chroma subsampling                       : 4:2:0
Bit depth                                : 8 bits
Scan type                                : Progressive
Bits/(Pixel*Frame)                       : 0.120
Stream size                              : 2.61 GiB (90%)
Title                                    : Slumber.2017.1080p.WEB-DL.DD5.1.H264-FGT
Language                                 : English
Default                                  : Yes
Forced                                   : No
Color primaries                          : BT.709
Transfer characteristics                 : BT.709
Matrix coefficients                      : BT.709
Color range                              : Limited

Audio
ID                                       : 2
Format                                   : AC-3
Format/Info                              : Audio Coding 3
Mode extension                           : CM (complete main)
Format settings, Endianness              : Big
Codec ID                                 : A_AC3
Duration                                 : 1h 24mn
Bit rate mode                            : Constant
Bit rate                                 : 384 Kbps
Channel(s)                               : 6 channels
Channel positions                        : Front: L C R, Side: L R, LFE
Sampling rate                            : 48.0 KHz
Bit depth                                : 16 bits
Compression mode                         : Lossy
Delay relative to video                  : -42ms
Stream size                              : 231 MiB (8%)
Title                                    : Slumber.2017.1080p.WEB-DL.DD5.1.H264-FGT
Language                                 : English
Default                                  : Yes
Forced                                   : No

Text
ID                                       : 3
Format                                   : UTF-8
Codec ID                                 : S_TEXT/UTF8
Codec ID/Info                            : UTF-8 Plain Text
Language                                 : English
Default                                  : Yes
Forced                                   : No

Menu
00:00:00.000                             : en:1
00:05:26.000                             : en:2
00:10:54.000                             : en:3
00:16:57.000                             : en:4
00:21:35.000                             : en:5
00:27:56.000                             : en:6
00:33:05.000                             : en:7
00:38:26.000                             : en:8
00:44:52.000                             : en:9
00:48:56.000                             : en:10
00:53:23.000                             : en:11
00:59:02.000                             : en:12
01:04:54.000                             : en:13
01:08:32.000                             : en:14
01:17:25.000                             : en:15
01:21:44.000                             : en:16
Image

Slumber.2017.1080p.WEB-DL.DD5.1.H264-FGT.mkv  [2.89 Gb]

Post Reply

Return to “Non-Retail HD (720p, 810p, 1080p)”