Devils.Whisper.(2017).WEBRip.1080p.AC3.x264-FGT

Encodes in the resolutions 720p, 810p and 1080p, and in irregular HD resolutions, from non-retail (WEB or HDTV) sources, with one or more English audio tracks only. This section does not include animated or TV/documentary films, it does however include black & white movies.
Post Reply
bjorn j
Donator
Donator
Posts: 3290
Joined: Wed Jan 07, 2009 1:49 pm
Has thanked: 24 times
Been thanked: 5025 times

Devils.Whisper.(2017).WEBRip.1080p.AC3.x264-FGT

Post by bjorn j » Tue Nov 14, 2017 1:55 pm

Image

http://www.IMDb.com/title/tt5868924/
Genres: Drama, Horror, Thriller

15 year-old Alejandro Duran, who comes from a religious Latino American family, aspires to be a Catholic priest. But when Alex discovers a mysterious box passed down from his grandparents, he unwittingly unleashes a demonic spirit bent on possessing him. Alex must find a way to defeat this ancient demon, which has been tormenting children since the dawn of man, before it destroys him and everyone he loves. On the surface Devil's Whisper is a supernatural horror film about demonic possession but at its core it's a psychological thriller about repressed memories and childhood trauma.

Code: Select all

Format                                   : Matroska
File size                                : 2.96 GiB
Duration                                 : 1h 25mn
Overall bit rate                         : 4 959 Kbps

Video
ID                                       : 1
Format                                   : AVC
Format/Info                              : Advanced Video Codec
Format profile                           : High@L4.0
Format settings, CABAC                   : Yes
Format settings, ReFrames                : 5 frames
Codec ID                                 : V_MPEG4/ISO/AVC
Duration                                 : 1h 25mn
Bit rate                                 : 4 476 Kbps
Width                                    : 1 920 pixels
Height                                   : 796 pixels
Display aspect ratio                     : 2.40:1
Frame rate mode                          : Constant
Frame rate                               : 23.976 fps
Color space                              : YUV
Chroma subsampling                       : 4:2:0
Bit depth                                : 8 bits
Scan type                                : Progressive
Bits/(Pixel*Frame)                       : 0.122
Stream size                              : 2.67 GiB (90%)
Title                                    : Devils.Whisper.2017.1080p.WEB-DL.DD5.1.H264-FGT
Language                                 : English
Default                                  : Yes
Forced                                   : No
Color primaries                          : BT.709
Transfer characteristics                 : BT.709
Matrix coefficients                      : BT.709
Color range                              : Limited

Audio
ID                                       : 2
Format                                   : AC-3
Format/Info                              : Audio Coding 3
Mode extension                           : CM (complete main)
Format settings, Endianness              : Big
Codec ID                                 : A_AC3
Duration                                 : 1h 25mn
Bit rate mode                            : Constant
Bit rate                                 : 384 Kbps
Channel(s)                               : 6 channels
Channel positions                        : Front: L C R, Side: L R, LFE
Sampling rate                            : 48.0 KHz
Bit depth                                : 16 bits
Compression mode                         : Lossy
Delay relative to video                  : -42ms
Stream size                              : 235 MiB (8%)
Title                                    : Devils.Whisper.2017.1080p.WEB-DL.DD5.1.H264-FGT
Language                                 : English
Default                                  : Yes
Forced                                   : No

Text
ID                                       : 3
Format                                   : UTF-8
Codec ID                                 : S_TEXT/UTF8
Codec ID/Info                            : UTF-8 Plain Text
Language                                 : English
Default                                  : Yes
Forced                                   : No

Menu
00:00:00.000                             : en:1
00:06:13.665                             : en:2
00:09:43.416                             : en:3
00:14:34.874                             : en:4
00:20:52.793                             : en:5
00:26:15.699                             : en:6
00:30:24.239                             : en:7
00:35:45.810                             : en:8
00:40:56.453                             : en:9
00:44:08.603                             : en:10
00:50:31.235                             : en:11
00:54:50.786                             : en:12
00:58:05.605                             : en:13
01:04:35.911                             : en:14
01:11:05.634                             : en:15
01:14:49.107                             : en:16
Image

Devils.Whisper.2017.1080p.WEB-DL.DD5.1.H264-FGT.mkv  [2.96 Gb]

Post Reply

Return to “Non-Retail HD (720p, 810p, 1080p)”