The.Layover.(2017).WEBRip.1080p.AC3.x264-FGT

Encodes in the resolutions 720p, 810p and 1080p, and in irregular HD resolutions, from non-retail (WEB or HDTV) sources, with one or more English audio tracks only. This section does not include animated or TV/documentary films, it does however include black & white movies.
Post Reply
bjorn j
Donator
Donator
Posts: 3149
Joined: Wed Jan 07, 2009 1:49 pm
Has thanked: 24 times
Been thanked: 3940 times

The.Layover.(2017).WEBRip.1080p.AC3.x264-FGT

Post by bjorn j » Fri Sep 01, 2017 3:31 pm

Image

http://www.IMDb.com/title/tt4565520/
Genre: Comedy

When their plane is rerouted due to a hurricane warning, two single female best friends (Alexandra Daddario, Kate Upton) find themselves competing for the same guy (Matt Barr) during an extended layover in St. Louis. Directed by William H. Macy, the film also stars Matt Jones, Molly Shannon, Kal Penn, and Rob Corddry.

Code: Select all

Video
ID                                       : 1
Format                                   : AVC
Format/Info                              : Advanced Video Codec
Format profile                           : High@L4
Format settings, CABAC                   : Yes
Format settings, ReFrames                : 5 frames
Codec ID                                 : V_MPEG4/ISO/AVC
Duration                                 : 1 h 27 min
Bit rate                                 : 4 428 kb/s
Width                                    : 1 920 pixels
Height                                   : 792 pixels
Display aspect ratio                     : 2.40:1
Frame rate mode                          : Constant
Frame rate                               : 23.976 (24000/1001) FPS
Color space                              : YUV
Chroma subsampling                       : 4:2:0
Bit depth                                : 8 bits
Scan type                                : Progressive
Bits/(Pixel*Frame)                       : 0.121
Stream size                              : 2.71 GiB (90%)
Title                                    : The.Layover.2017.1080p.WEB-DL.DD5.1.H264-FGT
Language                                 : English
Default                                  : Yes
Forced                                   : No
Color range                              : Limited
Color primaries                          : BT.709
Transfer characteristics                 : BT.709
Matrix coefficients                      : BT.709

Audio
ID                                       : 2
Format                                   : AC-3
Format/Info                              : Audio Coding 3
Format settings, Endianness              : Big
Codec ID                                 : A_AC3
Duration                                 : 1 h 27 min
Bit rate mode                            : Constant
Bit rate                                 : 384 kb/s
Channel(s)                               : 6 channels
Channel positions                        : Front: L C R, Side: L R, LFE
Sampling rate                            : 48.0 kHz
Frame rate                               : 31.250 FPS (1536 spf)
Bit depth                                : 16 bits
Compression mode                         : Lossy
Stream size                              : 241 MiB (8%)
Title                                    : The.Layover.2017.1080p.WEB-DL.DD5.1.H264-FGT
Language                                 : English
Service kind                             : Complete Main
Default                                  : Yes
Forced                                   : No

Menu
00:00:00.000                             : en:1
00:05:08.000                             : en:2
00:11:34.000                             : en:3
00:16:48.000                             : en:4
00:22:07.000                             : en:5
00:27:07.000                             : en:6
00:32:07.000                             : en:7
00:37:49.000                             : en:8
00:43:37.000                             : en:9
00:49:32.000                             : en:10
00:54:54.000                             : en:11
01:00:23.000                             : en:12
01:05:57.000                             : en:13
01:11:57.000                             : en:14
01:17:03.000                             : en:15
01:21:32.000                             : en:16
Image

The.Layover.2017.1080p.WEB-DL.DD5.1.H264-FGT.mkv  [3.01 Gb]

Post Reply

Return to “Non-Retail HD (720p, 810p, 1080p)”