Pray.For.Rain.(2017).WEBRip.1080p.AC3.x264-FGT

Encodes in the resolutions 720p, 810p and 1080p, and in irregular HD resolutions, from non-retail (WEB or HDTV) sources, with one or more English audio tracks only. This section does not include animated or TV/documentary films, it does however include black & white movies.
Post Reply
bjorn j
Donator
Donator
Posts: 3030
Joined: Wed Jan 07, 2009 1:49 pm
Has thanked: 19 times
Been thanked: 2513 times

Pray.For.Rain.(2017).WEBRip.1080p.AC3.x264-FGT

Post by bjorn j » Fri Jun 16, 2017 9:23 am

Image

http://www.IMDb.com/title/tt5213870/
Genre: Drama

A young New York journalist returns to the idyllic Central California farming community where she was raised only to find it has been ravaged by drought and has become a place ruled by gangs, violent threats and greed. She is forced to investigate the suspicious circumstances of her father's death even though it puts her in great danger.

Code: Select all

Video
ID                                       : 1
Format                                   : AVC
Format/Info                              : Advanced Video Codec
Format profile                           : High@L4
Format settings, CABAC                   : Yes
Format settings, ReFrames                : 5 frames
Codec ID                                 : V_MPEG4/ISO/AVC
Duration                                 : 1 h 32 min
Bit rate                                 : 4 482 kb/s
Width                                    : 1 920 pixels
Height                                   : 804 pixels
Display aspect ratio                     : 2.40:1
Frame rate mode                          : Constant
Frame rate                               : 23.976 (24000/1001) FPS
Color space                              : YUV
Chroma subsampling                       : 4:2:0
Bit depth                                : 8 bits
Scan type                                : Progressive
Bits/(Pixel*Frame)                       : 0.121
Stream size                              : 2.90 GiB (90%)
Title                                    : Pray.for.Rain.2017.1080p.WEB-DL.DD5.1.H264-FGT
Language                                 : English
Default                                  : Yes
Forced                                   : No
Color range                              : Limited
Color primaries                          : BT.709
Transfer characteristics                 : BT.709
Matrix coefficients                      : BT.709

Audio
ID                                       : 2
Format                                   : AC-3
Format/Info                              : Audio Coding 3
Format settings, Endianness              : Big
Codec ID                                 : A_AC3
Duration                                 : 1 h 32 min
Bit rate mode                            : Constant
Bit rate                                 : 384 kb/s
Channel(s)                               : 6 channels
Channel positions                        : Front: L C R, Side: L R, LFE
Sampling rate                            : 48.0 kHz
Frame rate                               : 31.250 FPS (1536 spf)
Bit depth                                : 16 bits
Compression mode                         : Lossy
Delay relative to video                  : -42 ms
Stream size                              : 255 MiB (8%)
Title                                    : Pray.for.Rain.2017.1080p.WEB-DL.DD5.1.H264-FGT
Language                                 : English
Service kind                             : Complete Main
Default                                  : Yes
Forced                                   : No

Text
ID                                       : 3
Format                                   : UTF-8
Codec ID                                 : S_TEXT/UTF8
Codec ID/Info                            : UTF-8 Plain Text
Language                                 : English
Default                                  : Yes
Forced                                   : No

Menu
00:00:00.000                             : en:Opening Sequence
00:04:42.000                             : en:Was A Good Man
00:11:22.000                             : en:Where Did It Happen?
00:18:09.000                             : enushing Us To Sell
00:22:43.000                             : en:Show Me These Pumps
00:29:09.000                             : en:Not Your Biggest Fan
00:34:52.000                             : en:Not Afraid
00:42:25.000                             : en:You Know Something
00:47:38.000                             : en:You\'ll Get Other Jobs
00:55:21.000                             : en:Land\'s Not Worth Anything
01:00:44.000                             : en:To Not Find Water
01:05:47.000                             : en:I Have Something!
01:12:05.000                             : en:We Need To Talk
01:17:30.000                             : enlanned To Own Everything
01:21:30.000                             : en:Helped Him Do It
01:28:45.000                             : en:End Credits
Image

Pray.For.Rain.2017.1080p.WEB-DL.DD5.1.H264-FGT.mkv  [3.22 Gb]

Post Reply

Return to “Non-Retail HD (720p, 810p, 1080p)”

Who is online

Users browsing this forum: No registered users and 1 guest