A Woman Deceived (2017)

Everything else which is non-series, such as specials, one-off shows, and annual events.
Also TV-movies (as in made-for-TV).
Post Reply
bjorn j
Donator
Donator
Posts: 2924
Joined: Wed Jan 07, 2009 1:49 pm
Has thanked: 24 times
Been thanked: 5754 times

A Woman Deceived (2017)

Post by bjorn j » Wed Jul 19, 2017 8:03 pm

A Woman Deceived (2017)

Image

Official Site - IMDb
MarVista wrote:It’s been one year since Elizabeth’s husband, Bill, died in a tragic horseback riding accident and she is starting to move on. When she runs into Travis Brown, the handsome and charming cowboy she met the same weekend Bill died, the two immediately hit it off. A great father figure for her son, Travis is just what Elizabeth needed to come into her life and they soon get married. But when new evidence surfaces implying that Bill’s death wasn’t an accident, Elizabeth is in shock. With all leads pointing to Travis as the murderer, Elizabeth must find a way to protect herself and her son from the man she married.
A.Woman.Deceived.2017.WEBRip.XviD.AC3-FGT.avi  [1.34 Gb]

Code: Select all

Video
ID                                       : 0
Format                                   : MPEG-4 Visual
Format profile                           : Simple@L5
Format settings, BVOP                    : No
Format settings, QPel                    : No
Format settings, GMC                     : No warppoints
Format settings, Matrix                  : Default (H.263)
Codec ID                                 : XviD
Codec ID/Hint                            : XviD
Duration                                 : 1h 27mn
Bit rate                                 : 1 800 Kbps
Width                                    : 720 pixels
Height                                   : 400 pixels
Display aspect ratio                     : 16:9
Frame rate                               : 23.976 fps
Color space                              : YUV
Chroma subsampling                       : 4:2:0
Bit depth                                : 8 bits
Scan type                                : Progressive
Compression mode                         : Lossy
Bits/(Pixel*Frame)                       : 0.261
Stream size                              : 1.10 GiB (82%)
Writing library                          : Lavc57.100.103

Audio
ID                                       : 1
Format                                   : AC-3
Format/Info                              : Audio Coding 3
Mode extension                           : CM (complete main)
Format settings, Endianness              : Big
Codec ID                                 : 2000
Duration                                 : 1h 27mn
Bit rate mode                            : Constant
Bit rate                                 : 384 Kbps
Channel(s)                               : 6 channels
Channel positions                        : Front: L C R, Side: L R, LFE
Sampling rate                            : 48.0 KHz
Bit depth                                : 16 bits
Compression mode                         : Lossy
Stream size                              : 240 MiB (18%)
Alignment                                : Aligned on interleaves
Interleave, duration                     : 42 ms (1.00 video frame)
Interleave, preload duration             : 512 ms

Post Reply

Return to “Miscellaneous TV”