Page 1 of 1

Love Finds You In Charm (2015)

Posted: Mon May 02, 2016 2:46 pm
by bjorn j
Love Finds You In Charm (2015)

Image

Official Site - IMDb
UP wrote:Emma Miller is a sweet Amish girl that longs for adventure. When given the opportunity to visit Charm, Ohio, she jumps at the chance. There, away from all she's ever known, Emma finds herself with a decision to make. Will she stay amongst the Amish, or leave behind everyone and everything in order to venture into the world?

Code: Select all

General
Unique ID                                : 214149085677780522150980982568204661193 (0xA11B9D1947C94C4C879401401F8871C9)
Complete name                            :Love.Finds.You.In.Charm.2015.DVDRip.x264-PLAYNOW.mkv
Format                                   : Matroska
Format version                           : Version 4 / Version 2
File size                                : 1.47 GiB
Duration                                 : 1h 33mn
Overall bit rate                         : 2 267 Kbps
Encoded date                             : UTC 2016-03-26T19:10:03Z
Writing application                      : mkvmerge v6.7.0 ('Back to the Ground') 64bit built on Jan  8 2014 15:10:52
Writing library                          : Lavf55.12.0

Video
ID                                       : 1
Format                                   : AVC
Format/Info                              : Advanced Video Codec
Format profile                           : High@L4.1
Format settings, CABAC                   : Yes
Format settings, ReFrames                : 4 frames
Codec ID                                 : V_MPEG4/ISO/AVC
Duration                                 : 1h 33mn
Bit rate                                 : 1 878 Kbps
Width                                    : 720 pixels
Height                                   : 400 pixels
Display aspect ratio                     : 16:9
Frame rate mode                          : Constant
Frame rate                               : 23.976 fps
Color space                              : YUV
Chroma subsampling                       : 4:2:0
Bit depth                                : 8 bits
Scan type                                : Progressive
Bits/(Pixel*Frame)                       : 0.272
Stream size                              : 1.19 GiB (81%)
Writing library                          : x264 core 142 r2479 dd79a61
Encoding settings                        : cabac=1 / ref=1 / deblock=1:0:0 / analyse=0x3:0x113 / me=hex / subme=2 / psy=1 / psy_rd=1.00:0.00 / mixed_ref=0 / me_range=16 / chroma_me=1 / trellis=0 / 8x8dct=1 / cqm=0 / deadzone=21,11 / fast_pskip=1 / chroma_qp_offset=0 / threads=36 / lookahead_threads=3 / sliced_threads=0 / nr=0 / decimate=1 / interlaced=0 / bluray_compat=0 / constrained_intra=0 / bframes=3 / b_pyramid=2 / b_adapt=1 / b_bias=0 / direct=1 / weightb=1 / open_gop=0 / weightp=1 / keyint=240 / keyint_min=24 / scenecut=40 / intra_refresh=0 / rc_lookahead=10 / rc=abr / mbtree=1 / bitrate=1878 / ratetol=1.0 / qcomp=0.60 / qpmin=0 / qpmax=69 / qpstep=4 / vbv_maxrate=62500 / vbv_bufsize=78125 / nal_hrd=none / filler=0 / ip_ratio=1.40 / aq=1:1.00
Default                                  : Yes
Forced                                   : No
Color primaries                          : BT.601 NTSC
Transfer characteristics                 : BT.709
Matrix coefficients                      : BT.601
Color range                              : Limited

Audio
ID                                       : 2
Format                                   : AC-3
Format/Info                              : Audio Coding 3
Mode extension                           : CM (complete main)
Format settings, Endianness              : Big
Codec ID                                 : A_AC3
Duration                                 : 1h 33mn
Bit rate mode                            : Constant
Bit rate                                 : 384 Kbps
Channel(s)                               : 6 channels
Channel positions                        : Front: L C R, Side: L R, LFE
Sampling rate                            : 48.0 KHz
Bit depth                                : 16 bits
Compression mode                         : Lossy
Delay relative to video                  : -5ms
Stream size                              : 255 MiB (17%)
Title                                    : Surround
Language                                 : English
Default                                  : Yes
Forced                                   : No

Menu
00:00:00.000                             : :Chapter 1
00:02:58.136                             : :Chapter 2
00:10:38.721                             : :Chapter 3
00:20:04.119                             : :Chapter 4
00:27:51.461                             : :Chapter 5
00:35:16.364                             : :Chapter 6
00:47:27.594                             : :Chapter 7
00:57:21.229                             : :Chapter 8
01:06:25.064                             : :Chapter 9
01:15:50.003                             : :Chapter 10
01:25:04.849                             : :Chapter 11
01:29:57.976                             : :Chapter 12
Image
Image
Image
Image

Love.Finds.You.In.Charm.2015.DVDRip.x264-PLAYNOW.mkv  [1.47 Gb]