Tim Minchin Live - Ready For This? (2010)

Everything else which is non-series, such as specials, one-off shows, and annual events.
Also TV-movies (as in made-for-TV).
Post Reply
bushymait
Banned
Posts: 360
Joined: Sat Apr 05, 2008 3:59 pm
Been thanked: 50 times

Tim Minchin Live - Ready For This? (2010)

Post by bushymait » Mon Nov 29, 2010 6:09 pm

Image


Tim Minchin’s Ready For This? toured twice around the UK &Australia to ecstatic sold-out houses & critical acclaim It has been performed in some of London’s most legendary venues, including a packed 3-night run at the HMV Hammer smithApollo, where this performance was recorded in October 2009The piano-bashing, icon-trashing, nerd-brained, rock-voiced hedgehog haired, tight-trousered philosopher comedian is fast be coming known as one of his generation’s most brilliant &
unique live performer.

In his second live DVD, Ready For This?,available on DVD, Blu-ray and iTunes from 29th November 2010, Perrier award winner, uberminstrel and comedy rock super star Tim Minchin confronts the pressing issues of the day: love, truth, dancing bears and ginger body hair.

Following the success of his debut DVD, So F**king Rock, and huge, sold-out tours of the UK and Australia, the piano-bashing, icon-trashing, nerd-brained, rock-voiced, hedgehog-haired, tight-trousered philosopher-comedian is fast becoming known as one of his generation's most brilliant and unique live performers.

Filmed during a packed 3-night run at the HMV Hammersmith Apollo, Ready For This? features Canvas Bags, Bears Don’t Dig On Dancing, Prejudice (Only a Ginger), White Wine In The Sun, a nine minute beat poem: Storm and more from comedy’s hottest rock ‘n’ roll megastar.

Code: Select all

  General
Complete name                    : Tim.Minchin.Ready.For.This.2010.BDRip.XviD-bm.CD1.avi
Format                           : AVI
Format/Info                      : Audio Video Interleave
File size                        : 698 MiB
Duration                         : 57mn 20s
Overall bit rate                 : 1 701 Kbps
Writing application              : VirtualDubMod 1.5.10.2 (build 2540/release)
Writing library                  : VirtualDubMod build 2540/release
segm                             : 

  Video
ID                               : 0
Format                           : MPEG-4 Visual
Format profile                   : Advanced Simple@L5
Format settings, BVOP            : Yes
Format settings, QPel            : No
Format settings, GMC             : No warppoints
Format settings, Matrix          : Default (H.263)
Muxing mode                      : Packed bitstream
Codec ID                         : XviD
Codec ID/Hint                    : XviD
Duration                         : 57mn 20s
Bit rate                         : 1 243 Kbps
Width                            : 624 pixels
Height                           : 352 pixels
Display aspect ratio             : 16:9
Frame rate                       : 25.000 fps
Color space                      : YUV
Chroma subsampling               : 4:2:0
Bit depth                        : 8 bits
Scan type                        : Progressive
Bits/(Pixel*Frame)               : 0.226
Stream size                      : 510 MiB (73%)
Writing library                  : XviD 57

  Audio
ID                               : 1
Format                           : AC-3
Format/Info                      : Audio Coding 3
Mode extension                   : CM (complete main)
Codec ID                         : 2000
Duration                         : 57mn 20s
Bit rate mode                    : Constant
Bit rate                         : 448 Kbps
Channel(s)                       : 6 channels
Channel positions                : Front: L C R, Side: L R, LFE
Sampling rate                    : 48.0 KHz
Bit depth                        : 16 bits
Stream size                      : 184 MiB (26%)
Alignment                        : Split accross interleaves
Interleave, duration             : 40 ms (1.00 video frame)
Interleave, preload duration     : 500 ms


  General
Complete name                    : Tim.Minchin.Ready.For.This.2010.BDRip.XviD-bm.CD2.sharethefiles.com.avi
Format                           : AVI
Format/Info                      : Audio Video Interleave
File size                        : 698 MiB
Duration                         : 58mn 3s
Overall bit rate                 : 1 680 Kbps
Writing application              : VirtualDubMod 1.5.10.2 (build 2540/release)
Writing library                  : VirtualDubMod build 2540/release

  Video
ID                               : 0
Format                           : MPEG-4 Visual
Format profile                   : Advanced Simple@L5
Format settings, BVOP            : Yes
Format settings, QPel            : No
Format settings, GMC             : No warppoints
Format settings, Matrix          : Default (H.263)
Muxing mode                      : Packed bitstream
Codec ID                         : XviD
Codec ID/Hint                    : XviD
Duration                         : 58mn 3s
Bit rate                         : 1 222 Kbps
Width                            : 624 pixels
Height                           : 352 pixels
Display aspect ratio             : 16:9
Frame rate                       : 25.000 fps
Color space                      : YUV
Chroma subsampling               : 4:2:0
Bit depth                        : 8 bits
Scan type                        : Progressive
Bits/(Pixel*Frame)               : 0.223
Stream size                      : 508 MiB (73%)
Writing library                  : XviD 57

  Audio
ID                               : 1
Format                           : AC-3
Format/Info                      : Audio Coding 3
Mode extension                   : CM (complete main)
Codec ID                         : 2000
Duration                         : 58mn 3s
Bit rate mode                    : Constant
Bit rate                         : 448 Kbps
Channel(s)                       : 6 channels
Channel positions                : Front: L C R, Side: L R, LFE
Sampling rate                    : 48.0 KHz
Bit depth                        : 16 bits
Stream size                      : 186 MiB (27%)
Alignment                        : Split accross interleaves
Interleave, duration             : 40 ms (1.00 video frame)
Interleave, preload duration     : 500 ms
Tim.Minchin.Ready.For.This.2010.CD1.BDRip.XviD-bm.avi  [697.53 Mb]
Tim.Minchin.Ready.For.This.2010.CD2.BDRip.XviD-bm.avi  [697.58 Mb]

[ Add all 2 links to your ed2k client ]
Last edited by bushymait on Thu Dec 09, 2010 1:18 pm, edited 1 time in total.

stokers
Registered user
Registered user
Posts: 163
Joined: Thu Jan 25, 2007 3:55 am
Location: at the front door waiting for all my prizes after logging into stf.

Re: Tim Minchin Live - Ready For This? (2010)

Post by stokers » Tue Nov 30, 2010 12:09 am

thank you,this bloke's funny as. :samurai

ilikefree
Donator
Donator
Posts: 102
Joined: Thu Jul 26, 2007 10:25 am
Location: ozi

Re: Tim Minchin Live - Ready For This? (2010)

Post by ilikefree » Tue Dec 14, 2010 9:47 pm

cheers matey :pir8

Here2Share
Donator
Donator
Posts: 290
Joined: Thu Jul 21, 2011 9:00 am
Has thanked: 2323 times

Re: Tim Minchin Live - Ready For This? (2010)

Post by Here2Share » Tue Dec 24, 2013 2:02 pm

Many Thanks! :thumbs

Saw a video of Tim talking at a graduation type event and he totally stole the show.
Loved his use of language and the points he put across!
So, want a bit more! :)

Thanks again! :clap

Post Reply

Return to “Miscellaneous TV”