Force.10.from.Navarone.(1978).BDRip.1080p.AC3.x264-DXC [ENG/SPA]

1080p encodes from retail (BluRay, HDDVD) or non-retail (WEB, HDTV) sources, with one or more foreign language audio tracks (can additionally include one or more English tracks). This section does not include animated or TV/documentary films, it does however include black & white movies.
Post Reply
DXC
Registered user
Registered user
Posts: 48
Joined: Sun Jul 21, 2013 9:31 am
Been thanked: 1 time

Force.10.from.Navarone.(1978).BDRip.1080p.AC3.x264-DXC [ENG/SPA]

Post by DXC » Thu Apr 21, 2016 5:53 pm

Force 10 from Navarone
(Guy Hamilton, 1978)

Image
IMDb
Image
Technical data
IAlthough the websites specialized in analyzing edition Bluray say:
On the bright side, I was impressed with the natural skintones and appropriate color saturation throughout the film (which is likely the area of greatest improvement over the standard definition release).


This has little to do with reality with a kind little pig skin tones so I proceeded to remedy this deficiency in the rip I share::

Bluray vs BDRip Dardo

Image

Image

*****************************

Image

Image
[/i] [/color]
*********************************
Technical data

Code: Select all

General
Complete name                            : Force 10 from Navarone (1978) BDRip 1080p Dual [Eng & Spa] Subs by Dardo.mkv
Format                                   : Matroska
Format version                           : Version 2
File size                                : 7.08 GiB
Duration                                 : 1h 58mn
Overall bit rate                         : 8 551 Kbps
Encoded date                             : UTC 2016-04-19 17:41:32
Writing application                      : mkvmerge v4.0.0 ('The Stars were mine') built on Jun  5 2010 17:44:09
Writing library                          : libebml v1.0.0 + libmatroska v1.0.0

Video
ID                                       : 1
Format                                   : AVC
Format/Info                              : Advanced Video Codec
Format profile                           : High@L4.1
Format settings, CABAC                   : Yes
Format settings, ReFrames                : 5 frames
Codec ID                                 : V_MPEG4/ISO/AVC
Duration                                 : 1h 58mn
Bit rate                                 : 7 997 Kbps
Width                                    : 1 920 pixels
Height                                   : 800 pixels
Display aspect ratio                     : 2.40:1
Frame rate mode                          : Constant
Frame rate                               : 23.976 fps
Color space                              : YUV
Chroma subsampling                       : 4:2:0
Bit depth                                : 8 bits
Scan type                                : Progressive
Bits/(Pixel*Frame)                       : 0.217
Stream size                              : 6.62 GiB (94%)
Writing library                          : x264 core 148 r2665 a01e339

Audio #1
ID                                       : 2
Format                                   : AC-3
Format/Info                              : Audio Coding 3
Mode extension                           : CM (complete main)
Format settings, Endianness              : Big
Codec ID                                 : A_AC3
Duration                                 : 1h 58mn
Bit rate mode                            : Constant
Bit rate                                 : 192 Kbps
Channel(s)                               : 2 channels
Channel positions                        : Front: L R
Sampling rate                            : 48.0 KHz
Bit depth                                : 16 bits
Compression mode                         : Lossy
Stream size                              : 163 MiB (2%)
Language                                 : English
Default                                  : Yes
Forced                                   : No

Audio #2
ID                                       : 3
Format                                   : AC-3
Format/Info                              : Audio Coding 3
Mode extension                           : CM (complete main)
Format settings, Endianness              : Big
Codec ID                                 : A_AC3
Duration                                 : 1h 58mn
Bit rate mode                            : Constant
Bit rate                                 : 192 Kbps
Channel(s)                               : 2 channels
Channel positions                        : Front: L R
Sampling rate                            : 48.0 KHz
Bit depth                                : 16 bits
Compression mode                         : Lossy
Delay relative to video                  : 10ms
Stream size                              : 163 MiB (2%)
Language                                 : Spanish
Default                                  : No
Forced                                   : No

Text #1
ID                                       : 4
Format                                   : UTF-8
Codec ID                                 : S_TEXT/UTF8
Codec ID/Info                            : UTF-8 Plain Text
Language                                 : Spanish
Default                                  : Yes
Forced                                   : No

Text #2
ID                                       : 5
Format                                   : VobSub
Muxing mode                              : zlib
Codec ID                                 : S_VOBSUB
Codec ID/Info                            : The same subtitle format used on DVDs
Language                                 : Spanish
Default                                  : No
Forced                                   : No

Text #3
ID                                       : 6
Format                                   : VobSub
Muxing mode                              : zlib
Codec ID                                 : S_VOBSUB
Codec ID/Info                            : The same subtitle format used on DVDs
Language                                 : Spanish
Default                                  : No
Forced                                   : No

Text #4
ID                                       : 7
Format                                   : VobSub
Muxing mode                              : zlib
Codec ID                                 : S_VOBSUB
Codec ID/Info                            : The same subtitle format used on DVDs
Language                                 : English
Default                                  : No
Forced                                   : No
Screenshots

Image

Image

Image

Image

Image

Image

Image

Enlaces
@@ @@ @@ @@ Audio:English and Spanish
Subtitles (mkv container): Spanish and English

Post Reply

Return to “1080p (a1080p, 1080p)”