Il.Postino.(1994).BDRip.1080p.AC3.x264-DXC [ITA/SPA]

1080p encodes from retail (BluRay, HDDVD) or non-retail (WEB, HDTV) sources, with one or more foreign language audio tracks (can additionally include one or more English tracks). This section does not include animated or TV/documentary films, it does however include black & white movies.
Post Reply
DXC
Registered user
Registered user
Posts: 43
Joined: Sun Jul 21, 2013 9:31 am
Been thanked: 1 time

Il.Postino.(1994).BDRip.1080p.AC3.x264-DXC [ITA/SPA]

Post by DXC » Thu Mar 31, 2016 1:08 am

Il Postino
(Michael Radford, 1994)

Image
IMDb
Technical data

Code: Select all

General
Complete name                            : Il Postino [El cartero y Pablo Neruda_1994] BDRip 1080p Dual [Ita_Spa] Subs by Santi & Dardo.mkv
Format                                   : Matroska
Format version                           : Version 2
File size                                : 10.00 GiB
Duration                                 : 1h 53mn
Overall bit rate                         : 12.6 Mbps
Encoded date                             : UTC 2016-03-27 00:29:35
Writing application                      : mkvmerge v4.0.0 ('The Stars were mine') built on Jun  5 2010 17:44:09
Writing library                          : libebml v1.0.0 + libmatroska v1.0.0

Video
ID                                       : 1
Format                                   : AVC
Format/Info                              : Advanced Video Codec
Format profile                           : High@L4.1
Format settings, CABAC                   : Yes
Format settings, ReFrames                : 4 frames
Codec ID                                 : V_MPEG4/ISO/AVC
Duration                                 : 1h 53mn
Bit rate                                 : 11.8 Mbps
Width                                    : 1 800 pixels
Height                                   : 1 080 pixels
Display aspect ratio                     : 1.667
Frame rate mode                          : Constant
Frame rate                               : 23.976 fps
Color space                              : YUV
Chroma subsampling                       : 4:2:0
Bit depth                                : 8 bits
Scan type                                : Progressive
Bits/(Pixel*Frame)                       : 0.253
Stream size                              : 9.39 GiB (94%)
Writing library                          : x264 core 148 r2665 a01e339

Language                                 : English
Default                                  : No
Forced                                   : No

Audio #1
ID                                       : 2
Format                                   : AC-3
Format/Info                              : Audio Coding 3
Mode extension                           : CM (complete main)
Format settings, Endianness              : Big
Codec ID                                 : A_AC3
Duration                                 : 1h 53mn
Bit rate mode                            : Constant
Bit rate                                 : 320 Kbps
Channel(s)                               : 6 channels
Channel positions                        : Front: L C R, Side: L R, LFE
Sampling rate                            : 48.0 KHz
Bit depth                                : 16 bits
Compression mode                         : Lossy
Stream size                              : 261 MiB (3%)
Language                                 : Italian
Default                                  : Yes
Forced                                   : No

Audio #2
ID                                       : 3
Format                                   : AC-3
Format/Info                              : Audio Coding 3
Mode extension                           : CM (complete main)
Format settings, Endianness              : Big
Codec ID                                 : A_AC3
Duration                                 : 1h 53mn
Bit rate mode                            : Constant
Bit rate                                 : 192 Kbps
Channel(s)                               : 2 channels
Channel positions                        : Front: L R
Sampling rate                            : 48.0 KHz
Bit depth                                : 16 bits
Compression mode                         : Lossy
Stream size                              : 157 MiB (2%)
Language                                 : Spanish
Default                                  : No
Forced                                   : No

Text #1
ID                                       : 4
Format                                   : UTF-8
Codec ID                                 : S_TEXT/UTF8
Codec ID/Info                            : UTF-8 Plain Text
Language                                 : Spanish
Default                                  : Yes
Forced                                   : No

Text #2
ID                                       : 5
Format                                   : UTF-8
Codec ID                                 : S_TEXT/UTF8
Codec ID/Info                            : UTF-8 Plain Text
Title                                    : Forzados
Language                                 : Spanish
Default                                  : No
Forced                                   : No

Screenshots

Image

Image

Image

Image

Image

Image

Enlaces
@@ @@ @@ Audio:Italy and Spanish
Subtitles (mkv container): Spanish

More subtitles in other languages: http://www.opensubtitles.org/en/search/ ... movie-3965
[/size]

Post Reply

Return to “1080p (a1080p, 1080p)”