The.Good.the.Bad.and.the.Ugly.(1966).BDRip.1080p.Extended.Colour.Corrected.AC3.x264-DXC [EN/ES]

1080p encodes from retail (BluRay, HDDVD) or non-retail (WEB, HDTV) sources, with one or more foreign language audio tracks (can additionally include one or more English tracks). This section does not include animated or TV/documentary films, it does however include black & white movies.
Post Reply
DXC
Registered user
Registered user
Posts: 48
Joined: Sun Jul 21, 2013 9:31 am
Been thanked: 1 time

The.Good.the.Bad.and.the.Ugly.(1966).BDRip.1080p.Extended.Colour.Corrected.AC3.x264-DXC [EN/ES]

Post by DXC » Thu Mar 10, 2016 3:58 pm

Il buono, il brutto, il cattivo
"The Good the Bad and the Ugly"
(Sergio Leone, 1966)

Image
IMDb
Image
Video restored from the original Bluray
The image of this new remastered edition 4k, has little to do with the approach that gave the Italians there that seemed interesting to offer this new copy with a different assembly, although the image despite the remastering and others understood that it was improvable so I commented about messages behind the changes was to make:

On the one hand I have done a treatment of funds independently and that color "green morass" in heaven I do not like anything, and I've looked a shade more suited to what I understand is normal. On the other hand I have done a treatment for faces, also seeking normality in them. Finally I have corrected or balanced the rest of the frame as when handling so many things you have to always be careful.

By combining all comparative designs it is:

Bluray 720p Remastered 4k (resize a 720p) vs BDRip 720p Dardo

Image

The sky returns to blue, clean the swamp ... and a face that naturally understand more ...
Image
[/color][/i]
Image
*********************************
Technical data

Code: Select all

General
Complete name                            : The.Good.the.Bad.and.the.Ugly (1966) [ver.extended & corrected by dardo] BDRip 720p Dual [Eng & Spa] Subs [DivXClásico.com].mkv
Format                                   : Matroska
Format version                           : Version 2
File size                                : 9.29 GiB
Duration                                 : 2h 58mn
Overall bit rate                         : 7 443 Kbps
Encoded date                             : UTC 2014-06-21 08:27:53
Writing application                      : mkvmerge v4.0.0 ('The Stars were mine') built on Jun  5 2010 17:44:09
Writing library                          : libebml v1.0.0 + libmatroska v1.0.0

Video
ID                                       : 1
Format                                   : AVC
Format/Info                              : Advanced Video Codec
Format profile                           : High@L4.1
Format settings, CABAC                   : Yes
Format settings, ReFrames                : 12 frames
Codec ID                                 : V_MPEG4/ISO/AVC
Duration                                 : 2h 58mn
Bit rate                                 : 6 399 Kbps
Width                                    : 1 280 pixels
Height                                   : 544 pixels
Display aspect ratio                     : 2.35:1
Frame rate                               : 23.976 fps
Color space                              : YUV
Chroma subsampling                       : 4:2:0
Bit depth                                : 8 bits
Scan type                                : Progressive
Bits/(Pixel*Frame)                       : 0.383
Stream size                              : 7.99 GiB (86%)
Writing library                          : x264 core 142 r2409 d6b4e63
Language                                 : English
Default                                  : No
Forced                                   : No

Audio #1
ID                                       : 2
Format                                   : AC-3
Format/Info                              : Audio Coding 3
Mode extension                           : CM (complete main)
Codec ID                                 : A_AC3
Duration                                 : 2h 58mn
Bit rate mode                            : Constant
Bit rate                                 : 448 Kbps
Channel(s)                               : 6 channels
Channel positions                        : Front: L C R, Side: L R, LFE
Sampling rate                            : 48.0 KHz
Bit depth                                : 16 bits
Compression mode                         : Lossy
Stream size                              : 573 MiB (6%)
Language                                 : English
Default                                  : Yes
Forced                                   : No

Audio #2
ID                                       : 3
Format                                   : AC-3
Format/Info                              : Audio Coding 3
Mode extension                           : CM (complete main)
Codec ID                                 : A_AC3
Duration                                 : 2h 58mn
Bit rate mode                            : Constant
Bit rate                                 : 448 Kbps
Channel(s)                               : 6 channels
Channel positions                        : Front: L C R, Side: L R, LFE
Sampling rate                            : 48.0 KHz
Bit depth                                : 16 bits
Compression mode                         : Lossy
Stream size                              : 573 MiB (6%)
Language                                 : Spanish
Default                                  : No
Forced                                   : No

Text #1
ID                                       : 4
Format                                   : UTF-8
Codec ID                                 : S_TEXT/UTF8
Codec ID/Info                            : UTF-8 Plain Text
Title                                    : Completos castellano.
Language                                 : Spanish
Default                                  : Yes
Forced                                   : No

Text #2
ID                                       : 5
Format                                   : UTF-8
Codec ID                                 : S_TEXT/UTF8
Codec ID/Info                            : UTF-8 Plain Text
Title                                    : Forzados
Language                                 : Spanish
Default                                  : No
Forced                                   : No

Text #3
ID                                       : 6
Format                                   : UTF-8
Codec ID                                 : S_TEXT/UTF8
Codec ID/Info                            : UTF-8 Plain Text
Language                                 : English
Default                                  : No
Forced                                   : No
Screenshots

Image

Image

Image

Image

Image

Image

Image

Image

Elink
@@ @@Subtitles (mkv container): Spanish and English

Post Reply

Return to “1080p (a1080p, 1080p)”