Chanthaly.(2013).BDRip.1080p.AC3.x264-MANGO [LAO]

1080p encodes from retail (BluRay, HDDVD) or non-retail (WEB, HDTV) sources, with one or more foreign language audio tracks (can additionally include one or more English tracks). This section does not include animated or TV/documentary films, it does however include black & white movies.
Post Reply
IoNeL
Banned
Posts: 1306
Joined: Tue Mar 17, 2009 11:53 pm
Been thanked: 2 times

Chanthaly.(2013).BDRip.1080p.AC3.x264-MANGO [LAO]

Post by IoNeL » Thu Mar 19, 2015 6:40 pm

Chanthaly (2013)
Image
http://www.IMDb.com/title/tt2837366/
98 min | Horror | 18 May 2013 (Laos)
A sickly young woman experiences visions of her dead mother. She struggles to determine if the apparition is simply a side effect of her daily medication, or her mother actually reaching out to her from beyond the grave.

Code: Select all

General
Unique ID                                : 180380705517470266895954985035350763879 (0x87B40F6A39005AAE9B5F7AFC5CC16967)
Complete name                            : ZZZ\Chanthaly.2013.1080p.BluRay.x264-MANGO\Chanthaly.(2013).BDRip.1080p.AC3.x264-MANGO sharethefiles.com.mkv
Format                                   : Matroska
Format version                           : Version 4 / Version 2
File size                                : 5.87 GiB
Duration                                 : 1h 39mn
Overall bit rate mode                    : Variable
Overall bit rate                         : 8 451 Kbps
Movie name                               : Chanthaly 2013 1080p BluRay x264-MANGO
Encoded date                             : UTC 2014-12-07 09:46:08
Writing application                      : mkvmerge v7.2.0 ('On Every Street') 32bit built on Sep 13 2014 15:42:11
Writing library                          : libebml v1.3.0 + libmatroska v1.4.1
DURATION                                 : 01:35:41.430000000
NUMBER_OF_FRAMES                         : 911
NUMBER_OF_BYTES                          : 2172534
_STATISTICS_WRITING_APP                  : mkvmerge v7.2.0 ('On Every Street') 32bit built on Sep 13 2014 15:42:11
_STATISTICS_WRITING_DATE_UTC             : 2014-12-07 09:46:08
_STATISTICS_TAGS                         : BPS DURATION NUMBER_OF_FRAMES NUMBER_OF_BYTES

Video
ID                                       : 1
Format                                   : AVC
Format/Info                              : Advanced Video Codec
Format profile                           : High@L4.1
Format settings, CABAC                   : Yes
Format settings, ReFrames                : 5 frames
Codec ID                                 : V_MPEG4/ISO/AVC
Duration                                 : 1h 39mn
Bit rate mode                            : Variable
Bit rate                                 : 8 192 Kbps
Maximum bit rate                         : 62.5 Mbps
Width                                    : 1 920 pixels
Height                                   : 816 pixels
Display aspect ratio                     : 2.35:1
Frame rate mode                          : Constant
Frame rate                               : 23.976 fps
Color space                              : YUV
Chroma subsampling                       : 4:2:0
Bit depth                                : 8 bits
Scan type                                : Progressive
Bits/(Pixel*Frame)                       : 0.218
Stream size                              : 5.58 GiB (95%)
Writing library                          : x264 core 142 r2479 dd79a61
Encoding settings                        : cabac=1 / ref=5 / deblock=1:0:0 / analyse=0x3:0x113 / me=umh / subme=8 / psy=1 / psy_rd=1.00:0.00 / mixed_ref=1 / me_range=16 / chroma_me=1 / trellis=1 / 8x8dct=1 / cqm=0 / deadzone=21,11 / fast_pskip=1 / chroma_qp_offset=-2 / threads=12 / lookahead_threads=2 / sliced_threads=0 / nr=0 / decimate=1 / interlaced=0 / bluray_compat=0 / constrained_intra=0 / bframes=3 / b_pyramid=2 / b_adapt=2 / b_bias=0 / direct=3 / weightb=1 / open_gop=0 / weightp=2 / keyint=240 / keyint_min=24 / scenecut=40 / intra_refresh=0 / rc_lookahead=50 / rc=2pass / mbtree=1 / bitrate=8192 / ratetol=1.0 / qcomp=0.60 / qpmin=0 / qpmax=69 / qpstep=4 / cplxblur=20.0 / qblur=0.5 / vbv_maxrate=62500 / vbv_bufsize=62500 / nal_hrd=vbr / filler=0 / ip_ratio=1.40 / aq=1:1.00
Default                                  : Yes
Forced                                   : No

Audio
ID                                       : 2
Format                                   : AC-3
Format/Info                              : Audio Coding 3
Mode extension                           : CM (complete main)
Format settings, Endianness              : Big
Codec ID                                 : A_AC3
Duration                                 : 1h 39mn
Bit rate mode                            : Constant
Bit rate                                 : 256 Kbps
Channel(s)                               : 2 channels
Channel positions                        : Front: L R
Sampling rate                            : 48.0 KHz
Bit depth                                : 16 bits
Compression mode                         : Lossy
Stream size                              : 182 MiB (3%)
Language                                 : Lao
Default                                  : Yes
Forced                                   : No

Text
ID                                       : 3
Format                                   : VobSub
Muxing mode                              : zlib
Codec ID                                 : S_VOBSUB
Codec ID/Info                            : The same subtitle format used on DVDs
Language                                 : English
Default                                  : Yes
Forced                                   : Yes

Post Reply

Return to “1080p (a1080p, 1080p)”