Astérix.et.Obélix.Au.service.de.Sa.Majesté.(2012).BDRip.1080p.DTS.X264-SEiGHT [FR]

1080p encodes from retail (BluRay, HDDVD) or non-retail (WEB, HDTV) sources, with one or more foreign language audio tracks (can additionally include one or more English tracks). This section does not include animated or TV/documentary films, it does however include black & white movies.
Post Reply
erdamon
Registered user
Registered user
Posts: 1126
Joined: Sat Oct 14, 2006 12:00 am
Been thanked: 10 times

Astérix.et.Obélix.Au.service.de.Sa.Majesté.(2012).BDRip.1080p.DTS.X264-SEiGHT [FR]

Post by erdamon » Mon Mar 03, 2014 5:05 pm

Astérix et Obélix: Au service de Sa Majesté (2012)
Astérix and Obélix: God Save Britannia (World-wide English title)


Image

http://www.IMDb.com/title/tt1597522/

Code: Select all

                                               █▀▀▀▀▀▀▀▀▀▀▀▀▀▀▀▀█                  ▄▄▄▄▄▄▄▄▄▄▄                  
                 ██████████████████████████████▌  RELEASE INFO  ▐███████████████████          █                 
                 ██▀▀▀▀▀                       █▄▄▄▄▄▄▄▄▄▄▄▄▄▄▄▄█                  ▀▀▀▀▀▀▀▀▀▀█▓▒                
                 █▌                                                                          █▓▒                
                 █▌                                                                          █▓▒                
                 █▌                                                                          █▓▒                
                 █▌ Asterix.et.Obelix.Au.service.de.Sa.Majeste.2012.FRENCH.1080p.BluRay.x264 █▓▒                
                 █                                    -SEiGHT                                █▓▒                
                 █  RELEASE  DATE: 14/02/13                                                  █▓▒                
                 █  SOURCE:        BR PAL                                                    █▓▒                
                 █  VIDEO:         1920x800 @ 8425    AUDIO:FRENCH DTS        SUB:           █▓▒                
                 █  NB DVD:        94x50mb                                                   █▓▒                
                 █  GENRE:         COMEDIE, AVENTURE                                         █▓▒                
                 █  RUNTIME:       01h49min                                                  █▓▒                
                 █  RATING:        5.5/10                                                    █▓▒                
                 █                                                                           █▓▒                
                 █                                                                           █▓▒                
                 █ IMDb:     http://www.IMDb.com/title/tt1597522                             █▓▒                
                 █ allocine: http://www.allocine.fr/film/fichefilm_gen_cfilm=177895.html     █▓▒                
                 █                                                                           █▓▒                
                 █                                                                          ▐█▓▒                
                 █                                                                          ▐█▓▒                
                 █                                                                          ▐█▓▒                
                 █                                                                          ▐█▓▒                
                 █                                                                          ▐█▓▒                
                 █                                                                     ▄▄▄▄▄██▓▒                
                 █████████████████████████████████████████████████████████████████████████████▓▒                
                   ▓▓▓▓▓▓▓▓▓▓▓▓▓▓▓▓▓▓▓▓▓▓▓▓▓▓▓▓▓▓▓▓▓▓▓▓▓▓▓▓▓▓▓▓▓▓▓▓▓▓▓▓▓▓▓▓▓▓▓▓▓▓▓▓▓▓▓▓▓▓▓▓▓▓▓▓▒                
                                               █▀▀▀▀▀▀▀▀▀▀▀▀▀▀▀▀█                  ▄▄▄▄▄▄▄▄▄▄▄                  
                 ██████████████████████████████▌  GROUP NOTES   ▐███████████████████          █                 
                 ██▀▀▀▀▀                       █▄▄▄▄▄▄▄▄▄▄▄▄▄▄▄▄█                  ▀▀▀▀▀▀▀▀▀▀█▓▒                
                 █▌                                                                          █▓▒                
                 █▌  Contact/affils:                                  Greets :               █▓▒                
                 █▌   need  affils                                       Us                  █▓▒                
                 █     contact us                                                           ▐█▓▒                
                 █                                                                          ▐█▓▒                
                 █                                                                          ▐█▓▒                
                 █                                                                          ▐█▓▒                
                 █                                                                     ▄▄▄▄▄██▓▒                
                 █████████████████████████████████████████████████████████████████████████████▓▒                
                   ▓▓▓▓▓▓▓▓▓▓▓▓▓▓▓▓▓▓▓▓▓▓▓▓▓▓▓▓▓▓▓▓▓▓▓▓▓▓▓▓▓▓▓▓▓▓▓▓▓▓▓▓▓▓▓▓▓▓▓▓▓▓▓▓▓▓▓▓▓▓▓▓▓▓▓▓▒                

Code: Select all

General
Complete name                    : s8-asterix.1080p.mkv
Format                           : Matroska
File size                        : 7.65 GiB
Duration                         : 1h 50mn
Overall bit rate                 : 9 936 Kbps
Writing application              : mkvmerge v4.1.1 ('Bouncin' Back') built on Jul  3 2010 22:54:08
Writing library                  : libebml v1.0.0 + libmatroska v1.0

Video
ID                               : 1
Format                           : AVC
Format/Info                      : Advanced Video Codec
Format profile                   : High@L4.1
Format settings, CABAC           : Yes
Format settings, ReFrames        : 5 frames
Muxing mode                      : Container profile=Unknown@4.1
Codec ID                         : V_MPEG4/ISO/AVC
Duration                         : 1h 50mn
Bit rate                         : 8 229 Kbps
Nominal bit rate                 : 8 425 Kbps
Width                            : 1 920 pixels
Height                           : 800 pixels
Display aspect ratio             : 2.40:1
Frame rate                       : 23.976 fps
Resolution                       : 8 bits
Colorimetry                      : 4:2:0
Scan type                        : Progressive
Bits/(Pixel*Frame)               : 0.223
Stream size                      : 6.33 GiB (83%)
Writing library                  : x264 core 129 r2230 1cffe9f
Encoding settings                : cabac=1 / ref=5 / deblock=1:0:0 / analyse=0x3:0x113 / me=umh /
                                   subme=8 / psy=1 / psy_rd=1.00:0.00 / mixed_ref=1 / me_range=16 /
                                   chroma_me=1 / trellis=1 / 8x8dct=1 / cqm=0 / deadzone=21,11 /
                                   fast_pskip=1 / chroma_qp_offset=-2 / threads=12 / lookahead_threads=2 /
                                   sliced_threads=0 / nr=0 / decimate=1 / interlaced=0 / bluray_compat=0 /
                                   constrained_intra=0 / bframes=3 / b_pyramid=2 / b_adapt=2 / b_bias=0 /
                                   direct=3 / weightb=1 / open_gop=0 / weightp=2 / keyint=240 /
                                   keyint_min=24 / scenecut=40 / intra_refresh=0 / rc_lookahead=50 /
                                   rc=2pass / mbtree=1 / bitrate=8425 / ratetol=1.0 / qcomp=0.60 /
                                   qpmin=0 / qpmax=69 / qpstep=4 / cplxblur=20.0 /
                                   qblur=0.5 / ip_ratio=1.40 / aq=1:1.00

Audio
ID                               : 2
Format                           : DTS
Format/Info                      : Digital Theater Systems
Codec ID                         : A_DTS
Duration                         : 1h 50mn
Bit rate mode                    : Constant
Bit rate                         : 1 510 Kbps
Channel(s)                       : 6 channels
Channel positions                : Front: L C R, Surround: L R, LFE
Sampling rate                    : 48.0 KHz
Resolution                       : 24 bits
Stream size                      : 1.16 GiB (15%)
Title                            : French DTS 1509kbps
Language                         : French

Menu
00:00:00.000                     : en:00:00:00.000
00:06:09.286                     : en:00:06:09.286
00:15:17.708                     : en:00:15:17.708
00:20:36.068                     : en:00:20:36.068
00:30:28.243                     : en:00:30:28.243
00:36:35.068                     : en:00:36:35.068
00:44:20.825                     : en:00:44:20.825
00:49:12.408                     : en:00:49:12.408
00:54:29.433                     : en:00:54:29.433
01:02:22.447                     : en:01:02:22.447
01:09:49.143                     : en:01:09:49.143
01:15:12.633                     : en:01:15:12.633
01:19:55.833                     : en:01:19:55.833
01:26:46.410                     : en:01:26:46.410
01:37:37.351                     : en:01:37:37.351
01:43:43.968                     : en:01:43:43.968

Image
Image Image Image Image Image Image


Asterix.Et.Obelix.Au.Service.De.Sa.Majeste.2012.FRENCH.1080p.BluRay.x264-SEiGHT.mkv  [7.65 Gb]

Post Reply

Return to “1080p (a1080p, 1080p)”