The.Reckoning.(2020).BDRip.1080p.DTS.x264-MT

Encodes in the resolution 1080p from retail (BluRay, HDDVD) sources, with one or more English audio tracks only. This section does not include animated or TV/documentary films, it does however include black & white movies.
Post Reply
moeke
Anime Moderator
Anime Moderator
Posts: 9620
Joined: Sun May 03, 2009 9:15 am
Location: somewhere in the anime world
Has thanked: 11 times
Been thanked: 27 times

The.Reckoning.(2020).BDRip.1080p.DTS.x264-MT

Post by moeke »

Image

IMDb

After losing her husband during the Great Plague, Grace Haverstock is unjustly accused of being a witch and placed in the custody of England's most ruthless witch-hunter, Judge Moorcroft. Forced to endure physical and emotional torture while steadfastly maintaining her innocence, Grace faces her own inner demons as the devil himself starts to work his way into her mind.

Code: Select all

Video
ID : 1
Format : AVC
Format/Info : Advanced Video Codec
Format profile : High@L4.1
Format settings : CABAC / 5 Ref Frames
Format settings, CABAC : Yes
Format settings, Reference frames : 5 frames
Codec ID : V_MPEG4/ISO/AVC
Duration : 1 h 50 min
Bit rate : 14.0 Mb/s
Width : 1 920 pixels
Height : 808 pixels
Display aspect ratio : 2.40:1
Frame rate mode : Constant
Frame rate : 23.976 (24000/1001) FPS
Color space : YUV
Chroma subsampling : 4:2:0
Bit depth : 8 bits
Scan type : Progressive
Bits/(Pixel*Frame) : 0.378
Stream size : 10.9 GiB (78%)
Writing library : x264 core 157 r2938 2b00a84 TnP@MTeam Mod
Encoding settings : cabac=1 / ref=5 / deblock=1:-3:-3 / analyse=0x3:0x133 / me=umh / subme=10 / psy=1 / psy_rd=1.05:0.00 / mixed_ref=1 / me_range=32 / chroma_me=1 / trellis=2 / 8x8dct=1 / cqm=0 / deadzone=21,11 / fast_pskip=0 / chroma_qp_offset=-2 / threads=12 / lookahead_threads=2 / sliced_threads=0 / nr=0 / decimate=0 / interlaced=0 / bluray_compat=0 / constrained_intra=0 / bframes=8 / b_pyramid=2 / b_adapt=2 / b_bias=0 / direct=3 / weightb=1 / open_gop=0 / weightp=2 / keyint=250 / keyint_min=24 / scenecut=40 / intra_refresh=0 / rc_lookahead=250 / rc=crf / mbtree=0 / crf=16.8 / qcomp=0.60 / qpmin=0 / qpmax=69 / qpstep=4 / vbv_maxrate=62500 / vbv_bufsize=78125 / crf_max=0.0 / nal_hrd=none / filler=0 / ip_ratio=1.30 / pb_ratio=1.20 / aq=3:0.80
Language : English
Default : Yes
Forced : No
Color range : Limited
Color primaries : BT.709
Matrix coefficients : BT.709

Audio
ID : 2
Format : DTS XLL
Format/Info : Digital Theater Systems
Commercial name : DTS-HD Master Audio
Codec ID : A_DTS
Duration : 1 h 50 min
Bit rate mode : Variable
Bit rate : 3 910 kb/s
Channel(s) : 6 channels
Channel layout : C L R Ls Rs LFE
Sampling rate : 48.0 kHz
Frame rate : 93.750 FPS (512 SPF)
Bit depth : 24 bits
Compression mode : Lossless
Stream size : 3.03 GiB (22%)
Language : English
Default : Yes
Forced : No

Text #1
ID : 3
Format : UTF-8
Codec ID : S_TEXT/UTF8
Codec ID/Info : UTF-8 Plain Text
Duration : 1 h 40 min
Bit rate : 40 b/s
Count of elements : 1063
Stream size : 29.9 KiB (0%)
Title : SRT
Language : English
Default : Yes
Forced : No

Text #2
ID : 4
Format : PGS
Muxing mode : zlib
Codec ID : S_HDMV/PGS
Codec ID/Info : Picture based subtitle format used on BDs/HD-DVDs
Duration : 1 h 44 min
Bit rate : 18.6 kb/s
Count of elements : 2486
Stream size : 13.9 MiB (0%)
Language : English
Default : No
Forced : No

Menu
00:00:00.000 : en:Chapter 01
00:09:22.395 : en:Chapter 02
00:21:25.409 : en:Chapter 03
00:36:21.971 : en:Chapter 04
00:46:47.680 : en:Chapter 05
00:57:44.836 : en:Chapter 06
01:14:35.513 : en:Chapter 07
01:46:29.133 : en:Chapter 08
Image Image
Image Image
Image Image

The.Reckoning.2020.1080p.BluRay.x264.DTS-HD.MA.5.1-MT.mkv  [13.92 Gb]
The.Reckoning.2020.1080p.BluRay.x264.DTS-HD.MA.5.1-MT.srt  [75.5 Kb]

[ Add all 2 links to your ed2k client ]

Post Reply

Return to “Retail 1080p (BluRay, HDDVD)”