USS.Indianapolis.Men.of.Courage.(2016).BDRip.1080p.DTS-HD.x264-FGT

a1080p and 1080p encodes, and 1080p images and transport streams, from retail (BD, HDDVD, WEB-DL) or HDTV sources, with one or more English audio tracks only. This section does not include animated or TV/documentary films, it does however include black & white movies.
Post Reply
quiZZical
Registered user
Registered user
Posts: 2142
Joined: Tue Aug 23, 2011 12:08 am
Been thanked: 77 times

USS.Indianapolis.Men.of.Courage.(2016).BDRip.1080p.DTS-HD.x264-FGT

Post by quiZZical » Wed Jan 11, 2017 12:53 pm

Image
http://www.IMDb.com/title/tt2032572/
Nic Cage, Tom Sizemore and Tom Jane star in the harrowing tale of real life American heroes shipwrecked in shark infested waters in the waning days of World War II.

Code: Select all

Video
ID                                       : 1
Format                                   : AVC
Format/Info                              : Advanced Video Codec
Format profile                           : High@L4.1
Format settings, CABAC                   : Yes
Format settings, ReFrames                : 5 frames
Codec ID                                 : V_MPEG4/ISO/AVC
Duration                                 : 2h 9mn
Bit rate                                 : 9 025 Kbps
Width                                    : 1 920 pixels
Height                                   : 800 pixels
Display aspect ratio                     : 2.40:1
Frame rate mode                          : Constant
Frame rate                               : 23.976 (24000/1001) fps
Color space                              : YUV
Chroma subsampling                       : 4:2:0
Bit depth                                : 8 bits
Scan type                                : Progressive
Bits/(Pixel*Frame)                       : 0.245
Stream size                              : 8.00 GiB (84%)
Writing library                          : x264 core 148 r2744 b97ae06
Encoding settings                        : cabac=1 / ref=5 / deblock=1:0:0 / analyse=0x3:0x113 / me=umh / subme=8 / psy=1 / psy_rd=1.00:0.00 / mixed_ref=1 / me_range=16 / chroma_me=1 / trellis=1 / 8x8dct=1 / cqm=0 / deadzone=21,11 / fast_pskip=1 / chroma_qp_offset=-2 / threads=18 / lookahead_threads=3 / sliced_threads=0 / nr=0 / decimate=1 / interlaced=0 / bluray_compat=0 / constrained_intra=0 / bframes=3 / b_pyramid=2 / b_adapt=2 / b_bias=0 / direct=3 / weightb=1 / open_gop=0 / weightp=2 / keyint=240 / keyint_min=24 / scenecut=40 / intra_refresh=0 / rc_lookahead=50 / rc=2pass / mbtree=1 / bitrate=9025 / ratetol=1.0 / qcomp=0.60 / qpmin=0 / qpmax=69 / qpstep=4 / cplxblur=20.0 / qblur=0.5 / ip_ratio=1.40 / aq=1:1.00
Language                                 : English
Default                                  : Yes
Forced                                   : No

Audio
ID                                       : 2
Format                                   : DTS
Format/Info                              : Digital Theater Systems
Mode                                     : 16
Format settings, Endianness              : Big
Codec ID                                 : A_DTS
Duration                                 : 2h 9mn
Bit rate mode                            : Constant
Bit rate                                 : 1 509 Kbps
Channel(s)                               : 6 channels
Channel positions                        : Front: L C R, Side: L R, LFE
Sampling rate                            : 48.0 KHz
Frame rate                               : 93.750 fps (512 spf)
Bit depth                                : 24 bits
Compression mode                         : Lossy
Stream size                              : 1.37 GiB (14%)
Language                                 : English
Default                                  : Yes
Forced                                   : No

Text #1
ID                                       : 3
Format                                   : UTF-8
Codec ID                                 : S_TEXT/UTF8
Codec ID/Info                            : UTF-8 Plain Text
Language                                 : English
Default                                  : Yes
Forced                                   : No

Text #2
ID                                       : 4
Format                                   : UTF-8
Codec ID                                 : S_TEXT/UTF8
Codec ID/Info                            : UTF-8 Plain Text
Title                                    : SDH
Language                                 : English
Default                                  : No
Forced                                   : No

Menu
00:00:00.000                             : en:00:00:00.000
00:10:14.614                             : en:00:10:14.614
00:19:45.184                             : en:00:19:45.184
00:29:56.795                             : en:00:29:56.795
00:42:51.569                             : en:00:42:51.569
00:53:08.185                             : en:00:53:08.185
01:07:20.703                             : en:01:07:20.703
01:19:03.697                             : en:01:19:03.697
01:32:38.219                             : en:01:32:38.219
01:43:05.137                             : en:01:43:05.137
01:58:02.075                             : en:01:58:02.075
Image Image
Image Image
Image Image

https://www.youtube.com/watch?v=ZDPE-NronKk

LINKS:

USS.Indianapolis.Men.of.Courage.2016.1080p.BluRay.x264.DTS-ULSHD.mkv  [9.56 Gb]
USS.Indianapolis.Men.of.Courage.2016.1080p.BluRay.x264.DTS-ULSHD.nfo  [5.3 Kb]
USS.Indianapolis.Men.of.Courage.2016.1080p.BluRay.x264.DTS-ULSHD.srt  [109.7 Kb]


[ Add all 3 links to your ed2k client ]

Post Reply

Return to “1080p (a1080p, 1080p)”

Who is online

Users browsing this forum: No registered users and 2 guests