Zero.Motivation.(aka.Efes.beyahasei.enosh).(2014).HDTVRip.720p.AC3.x264-Yonidan [HE]

Encodes in the resolutions a720p, 720p, 810p and 1080i, and in irregular HD resolutions, retail (BluRay, HDDVD) or non-retail (WEB, HDTV) sources, with one or more foreign language audio tracks (can additionally include one or more English tracks). This section does not include animated or TV/documentary films, it does however include black & white movies.
Post Reply
IoNeL
Banned
Posts: 1846
Joined: Tue Mar 17, 2009 11:53 pm
Been thanked: 2 times

Zero.Motivation.(aka.Efes.beyahasei.enosh).(2014).HDTVRip.720p.AC3.x264-Yonidan [HE]

Post by IoNeL » Mon Apr 20, 2015 3:35 pm

Zero Motivation (2014) [HEBREW]
(aka.Efes beyahasei enosh)
Image
click on poster to see another poster
http://www.IMDb.com/title/tt3576084
Genres: [fade]Comedy[/fade]| [fade]Drama[/fade]
A unit of female Israeli soldiers at a remote desert base bide their time as they count down the minutes until they can return to civilian life.

Code: Select all

General
Unique ID                                : 250139139973250229547263971083950688888 (0xBC2F0BC63F80A7CD85F71DF7F3A70A78)
Complete name                            : ZZZ:\Zero.Motivation.(aka.Efes.beyahasei.enosh).(2014).HDRip.720p.AC3.x264-Yonidan sharethefiles.com.mkv
Format                                   : Matroska
Format version                           : Version 2
File size                                : 2.32 GiB
Duration                                 : 1h 36mn
Overall bit rate mode                    : Variable
Overall bit rate                         : 3 434 Kbps
Movie name                               : Zero Motivation 2014 HDTV XviD-Yonidan
Encoded date                             : UTC 2014-12-30 02:44:07
Writing application                      : mkvmerge v3.0.0 ('Hang up your Hang-Ups') built on Dec 12 2009 15:20:35
Writing library                          : libebml v0.7.9 + libmatroska v0.8.1

Video
ID                                       : 1
Format                                   : AVC
Format/Info                              : Advanced Video Codec
Format profile                           : High@L4.0
Format settings, CABAC                   : Yes
Format settings, ReFrames                : 3 frames
Codec ID                                 : V_MPEG4/ISO/AVC
Duration                                 : 1h 36mn
Bit rate mode                            : Variable
Bit rate                                 : 2 981 Kbps
Maximum bit rate                         : 25.0 Mbps
Width                                    : 1 280 pixels
Height                                   : 720 pixels
Display aspect ratio                     : 16:9
Frame rate mode                          : Constant
Frame rate                               : 25.000 fps
Color space                              : YUV
Chroma subsampling                       : 4:2:0
Bit depth                                : 8 bits
Scan type                                : Progressive
Bits/(Pixel*Frame)                       : 0.129
Stream size                              : 2.02 GiB (87%)
Writing library                          : x264 core 80 r1376kGIT 3feaec2
Encoding settings                        : cabac=1 / ref=3 / deblock=1:0:0 / analyse=0x3:0x133 / me=umh / subme=7 / psy=1 / psy_rd=1.0:0.0 / mixed_ref=1 / me_range=16 / chroma_me=1 / trellis=1 / 8x8dct=1 / cqm=0 / deadzone=21,11 / fast_pskip=1 / chroma_qp_offset=-2 / threads=6 / sliced_threads=0 / nr=0 / decimate=1 / mbaff=0 / constrained_intra=0 / bframes=3 / b_pyramid=0 / b_adapt=1 / b_bias=0 / direct=3 / wpredb=1 / wpredp=2 / keyint=250 / keyint_min=25 / scenecut=40 / rc_lookahead=40 / rc=crf / mbtree=1 / crf=18.0 / qcomp=0.60 / qpmin=10 / qpmax=51 / qpstep=4 / vbv_maxrate=25000 / vbv_bufsize=25000 / ip_ratio=1.40 / aq=1:1.00
Default                                  : Yes
Forced                                   : No

Audio
ID                                       : 2
Format                                   : AC-3
Format/Info                              : Audio Coding 3
Mode extension                           : CM (complete main)
Format settings, Endianness              : Big
Codec ID                                 : A_AC3
Duration                                 : 1h 36mn
Bit rate mode                            : Constant
Bit rate                                 : 384 Kbps
Channel(s)                               : 2 channels
Channel positions                        : Front: L R
Sampling rate                            : 48.0 KHz
Bit depth                                : 16 bits
Compression mode                         : Lossy
Stream size                              : 266 MiB (11%)
Language                                 : Hebrew
Default                                  : Yes
Forced                                   : No

Post Reply

Return to “Other HD (a720p, 720p, 810p, 1080i)”