Fugly.(2014).DVDRip.720p.AC3.x264-[DDR-ExCluSiVe] [HI]

Encodes in the resolutions a720p, 720p, 810p and 1080i, and in irregular HD resolutions, retail (BluRay, HDDVD) or non-retail (WEB, HDTV) sources, with one or more foreign language audio tracks (can additionally include one or more English tracks). This section does not include animated or TV/documentary films, it does however include black & white movies.
Post Reply
IoNeL
Banned
Posts: 833
Joined: Tue Mar 17, 2009 11:53 pm

Fugly.(2014).DVDRip.720p.AC3.x264-[DDR-ExCluSiVe] [HI]

Post by IoNeL » Tue Apr 07, 2015 9:03 am

Fugly (2014)[HIndi]
Image
click on poster to see another poster
http://www.IMDb.com/title/tt3683702/
134 min | Drama, Thriller | 13 June 2014 (India)
A comedian works hard to try and make it.

Code: Select all

General
Unique ID                                : 175914425071863736676899874405129983094 (0x8457E2C9A871EF6691D32FC55B4D1476)
Complete name                            : ZZZ:\Fugly (2014) 720p DVDRip x264 ESub [DDR-ExCluSiVe]\Fugly.(2014).DVDRip.720p.AC3.x264-[DDR-ExCluSiVe] sharethefiles.com.mkv
Format                                   : Matroska
Format version                           : Version 4 / Version 2
File size                                : 3.30 GiB
Duration                                 : 2h 16mn
Overall bit rate                         : 3 451 Kbps
Encoded date                             : UTC 2014-11-29 12:20:10
Writing application                      : mkvmerge v7.3.0 ('Nouages') 32bit built on Oct 22 2014 18:44:01
Writing library                          : libebml v1.3.0 + libmatroska v1.4.1
DURATION                                 : 02:15:51.533000000
NUMBER_OF_FRAMES                         : 2082
NUMBER_OF_BYTES                          : 2144758
_STATISTICS_WRITING_APP                  : mkvmerge v7.3.0 ('Nouages') 32bit built on Oct 22 2014 18:44:01
_STATISTICS_WRITING_DATE_UTC             : 2014-11-29 12:20:10
_STATISTICS_TAGS                         : BPS DURATION NUMBER_OF_FRAMES NUMBER_OF_BYTES

Video
ID                                       : 1
Format                                   : AVC
Format/Info                              : Advanced Video Codec
Format profile                           : High@L4.1
Format settings, CABAC                   : Yes
Format settings, ReFrames                : 8 frames
Codec ID                                 : V_MPEG4/ISO/AVC
Duration                                 : 2h 16mn
Bit rate                                 : 2 999 Kbps
Width                                    : 1 280 pixels
Height                                   : 544 pixels
Display aspect ratio                     : 2.35:1
Frame rate mode                          : Constant
Frame rate                               : 23.976 fps
Color space                              : YUV
Chroma subsampling                       : 4:2:0
Bit depth                                : 8 bits
Scan type                                : Progressive
Bits/(Pixel*Frame)                       : 0.180
Stream size                              : 2.81 GiB (85%)
Writing library                          : x264 core 142 r2431 ac76440
Encoding settings                        : cabac=1 / ref=8 / deblock=1:0:0 / analyse=0x3:0x133 / me=umh / subme=8 / psy=1 / psy_rd=1.00:0.15 / mixed_ref=1 / me_range=16 / chroma_me=1 / trellis=2 / 8x8dct=1 / cqm=0 / deadzone=21,11 / fast_pskip=1 / chroma_qp_offset=-3 / threads=12 / lookahead_threads=2 / sliced_threads=0 / nr=0 / decimate=1 / interlaced=0 / bluray_compat=0 / constrained_intra=0 / bframes=3 / b_pyramid=2 / b_adapt=2 / b_bias=0 / direct=3 / weightb=1 / open_gop=0 / weightp=2 / keyint=240 / keyint_min=23 / scenecut=40 / intra_refresh=0 / rc_lookahead=60 / rc=2pass / mbtree=1 / bitrate=2999 / ratetol=1.0 / qcomp=0.60 / qpmin=10 / qpmax=51 / qpstep=4 / cplxblur=20.0 / qblur=0.5 / vbv_maxrate=24000 / vbv_bufsize=24000 / nal_hrd=none / filler=0 / ip_ratio=1.40 / aq=1:1.00
Language                                 : English
Default                                  : Yes
Forced                                   : No

Audio
ID                                       : 2
Format                                   : AC-3
Format/Info                              : Audio Coding 3
Mode extension                           : CM (complete main)
Format settings, Endianness              : Big
Codec ID                                 : A_AC3
Duration                                 : 2h 16mn
Bit rate mode                            : Constant
Bit rate                                 : 448 Kbps
Channel(s)                               : 6 channels
Channel positions                        : Front: L C R, Side: L R, LFE
Sampling rate                            : 48.0 KHz
Bit depth                                : 16 bits
Compression mode                         : Lossy
Stream size                              : 439 MiB (13%)
Language                                 : Hindi
Default                                  : Yes
Forced                                   : No

Text
ID                                       : 3
Format                                   : VobSub
Muxing mode                              : zlib
Codec ID                                 : S_VOBSUB
Codec ID/Info                            : The same subtitle format used on DVDs
Language                                 : English
Default                                  : Yes
Forced                                   : No

Menu
00:00:00.000                             : en:Chapter 1
00:03:38.800                             : en:Chapter 2
00:05:26.900                             : en:Chapter 3
00:11:08.900                             : en:Chapter 4
00:14:05.667                             : en:Chapter 5
00:19:53.700                             : en:Chapter 6
00:23:43.966                             : en:Chapter 7
00:29:35.299                             : en:Chapter 8
00:39:41.799                             : en:Chapter 9
00:40:41.399                             : en:Chapter 10
00:49:58.866                             : en:Chapter 11
01:02:30.466                             : en:Chapter 12
01:08:40.899                             : en:Chapter 13
01:11:22.666                             : en:Chapter 14
01:21:25.199                             : en:Chapter 15
01:42:11.832                             : en:Chapter 16
01:44:09.032                             : en:Chapter 17
01:48:01.065                             : en:Chapter 18
01:53:43.698                             : en:Chapter 19
01:57:09.698                             : en:Chapter 20
02:01:53.331                             : en:Chapter 21
[fade]the file include softcoded english-subs[/fade]

Post Reply

Return to “Other HD (a720p, 720p, 810p, 1080i)”