The.Last.of.the.Mohicans.(1992).BDRip.720p.restored.color.grading.AC3.X264-DXC [ENG/SPA]

Encodes in the resolutions a720p, 720p, 810p and 1080i, and in irregular HD resolutions, retail (BluRay, HDDVD) or non-retail (WEB, HDTV) sources, with one or more foreign language audio tracks (can additionally include one or more English tracks). This section does not include animated or TV/documentary films, it does however include black & white movies.
Post Reply
DXC
Registered user
Registered user
Posts: 48
Joined: Sun Jul 21, 2013 9:31 am
Been thanked: 1 time

The.Last.of.the.Mohicans.(1992).BDRip.720p.restored.color.grading.AC3.X264-DXC [ENG/SPA]

Post by DXC » Wed Mar 04, 2015 11:01 am

The Last of the Mohicans
(Michael Mann, 1992)

Image
IMDb
Bluray edition shows an image with significant errors in the color palette so this rip attempt to "fix" this deficiency. A comparison:
Bluray USA (resize 720p)
Image

BDRip 720p Restored DXC
Image

********************

Bluray USA (resize 720p)
Image

BDRip 720p Restored DXC
Image

********************

Bluray USA (resize 720p)
Image

BDRip 720p Restored DXC
Image
Technical data

Code: Select all

General
Complete name                            : The Last of the Mohicans (1992) BDRip 720p DC [restored.color.grading] Dual [Eng & Spa (d.orig] Subs by [Santi_kuidao_Dardo].mkv
Format                                   : Matroska
Format version                           : Version 2
File size                                : 3.28 GiB
Duration                                 : 1h 54mn
Overall bit rate                         : 4 104 Kbps
Encoded date                             : UTC 2015-03-03 16:47:37
Writing application                      : mkvmerge v4.0.0 ('The Stars were mine') built on Jun  5 2010 17:44:09
Writing library                          : libebml v1.0.0 + libmatroska v1.0.0

Video
ID                                       : 1
Format                                   : AVC
Format/Info                              : Advanced Video Codec
Format profile                           : High@L4.1
Format settings, CABAC                   : Yes
Format settings, ReFrames                : 12 frames
Codec ID                                 : V_MPEG4/ISO/AVC
Duration                                 : 1h 54mn
Bit rate                                 : 3 126 Kbps
Width                                    : 1 280 pixels
Height                                   : 534 pixels
Display aspect ratio                     : 2.40:1
Frame rate mode                          : Constant
Frame rate                               : 23.976 fps
Color space                              : YUV
Chroma subsampling                       : 4:2:0
Bit depth                                : 8 bits
Scan type                                : Progressive
Bits/(Pixel*Frame)                       : 0.191
Stream size                              : 2.50 GiB (76%)
Writing library                          : x264 core 142 r2491 24e4fed
Default                                  : No
Forced                                   : No

Audio #1
ID                                       : 2
Format                                   : AC-3
Format/Info                              : Audio Coding 3
Mode extension                           : CM (complete main)
Format settings, Endianness              : Big
Codec ID                                 : A_AC3
Duration                                 : 1h 54mn
Bit rate mode                            : Constant
Bit rate                                 : 640 Kbps
Channel(s)                               : 6 channels
Channel positions                        : Front: L C R, Side: L R, LFE
Sampling rate                            : 48.0 KHz
Bit depth                                : 16 bits
Compression mode                         : Lossy
Stream size                              : 524 MiB (16%)
Language                                 : English
Default                                  : No
Forced                                   : No

Audio #2
ID                                       : 3
Format                                   : AC-3
Format/Info                              : Audio Coding 3
Mode extension                           : CM (complete main)
Format settings, Endianness              : Big
Codec ID                                 : A_AC3
Duration                                 : 1h 54mn
Bit rate mode                            : Constant
Bit rate                                 : 256 Kbps
Channel(s)                               : 6 channels
Channel positions                        : Front: L C R, Side: L R, LFE
Sampling rate                            : 48.0 KHz
Bit depth                                : 16 bits
Compression mode                         : Lossy
Stream size                              : 210 MiB (6%)
Title                                    : Doblaje Cines [partes VO necesitan forzados]
Language                                 : Spanish
Default                                  : No
Forced                                   : No

Text #1
ID                                       : 4
Format                                   : UTF-8
Codec ID                                 : S_TEXT/UTF8
Codec ID/Info                            : UTF-8 Plain Text
Title                                    : Forzados
Language                                 : Spanish
Default                                  : Yes
Forced                                   : No

Text #2
ID                                       : 5
Format                                   : UTF-8
Codec ID                                 : S_TEXT/UTF8
Codec ID/Info                            : UTF-8 Plain Text
Language                                 : Spanish
Default                                  : No
Forced                                   : No

Text #3
ID                                       : 6
Format                                   : UTF-8
Codec ID                                 : S_TEXT/UTF8
Codec ID/Info                            : UTF-8 Plain Text
Language                                 : English
Default                                  : No
Forced                                   : No
Screenshots

Image

Image

Image

Image

Elink:

The Last of the Mohicans (1992) BDRip 720p DC [restored.color.grading] Dual [Eng ...uidao_Dardo].mkv  [3.28 Gb]

@@Subtitles (mkv container): Spanish and English

------------------------------------------

Originally Posted by Dardo (DivXClásico)
Last edited by DXC on Fri May 01, 2015 11:07 am, edited 2 times in total.

Nagawika
Registered user
Registered user
Posts: 26
Joined: Sun Jan 16, 2011 4:26 am
Location: Montréal, Québec, Canada
Has thanked: 13 times

Re: The.Last.of.the.Mohicans.(1992).BDRip.720p.restored.color.grading.AC3.X264-DXC [ENG/SPA]

Post by Nagawika » Sun Mar 22, 2015 3:53 pm

Thank you

Post Reply

Return to “Other HD (a720p, 720p, 810p, 1080i)”