Once.Upon.a.Time.in.Shanghai.(2014).BDRip.720p.AAC.x264-RARBG [MN]

Encodes in the resolutions a720p, 720p, 810p and 1080i, and in irregular HD resolutions, retail (BluRay, HDDVD) or non-retail (WEB, HDTV) sources, with one or more foreign language audio tracks (can additionally include one or more English tracks). This section does not include animated or TV/documentary films, it does however include black & white movies.
Post Reply
IoNeL
Banned
Posts: 1680
Joined: Tue Mar 17, 2009 11:53 pm
Been thanked: 3 times

Once.Upon.a.Time.in.Shanghai.(2014).BDRip.720p.AAC.x264-RARBG [MN]

Post by IoNeL » Sun Feb 01, 2015 11:55 pm

[glow=red]Once Upon a Time in Shanghai[/glow](2014)

Image
Image
http://www.IMDb.com/title/tt2290567/
A laborer moves to Shanghai in the hope of becoming rich. But ends up using his kung fu skills to survive.

Code: Select all

General
Complete name                            : ZZZ\Once.Upon.a.Time.in.Shanghai.2014.720p.BluRay.H264.AAC-RARBG\Once.Upon.a.Time.in.Shanghai.2014.720p.BluRay.H264.AAC-RARBG.mp4
Format                                   : MPEG-4
Format profile                           : Base Media
Codec ID                                 : isom
File size                                : 1.13 GiB
Duration                                 : 1h 34mn
Overall bit rate                         : 1 696 Kbps
Movie name                               : RARBG.COM - Once.Upon.a.Time.in.Shanghai.2014.720p.BluRay.H264.AAC-RARBG
Writing application                      : Lavf55.37.102
Comment                                  : RARBG.COM - Once.Upon.a.Time.in.Shanghai.2014.720p.BluRay.H264.AAC-RARBGG

Video
ID                                       : 1
Format                                   : AVC
Format/Info                              : Advanced Video Codec
Format profile                           : High@L4.1
Format settings, CABAC                   : Yes
Format settings, ReFrames                : 3 frames
Codec ID                                 : avc1
Codec ID/Info                            : Advanced Video Coding
Duration                                 : 1h 34mn
Bit rate                                 : 1 500 Kbps
Width                                    : 1 280 pixels
Height                                   : 546 pixels
Display aspect ratio                     : 2.35:1
Original display aspect ratio            : 2.35:1
Frame rate mode                          : Constant
Frame rate                               : 24.000 fps
Color space                              : YUV
Chroma subsampling                       : 4:2:0
Bit depth                                : 8 bits
Scan type                                : Progressive
Bits/(Pixel*Frame)                       : 0.089
Stream size                              : 1 018 MiB (88%)
Writing library                          : x264 core 142 r2431kMod ac76440
Encoding settings                        : cabac=1 / ref=4 / deblock=1:-1:-1 / analyse=0x3:0x113 / me=hex / subme=7 / psy=1 / fade_compensate=0.00 / psy_rd=1.00:0.15 / mixed_ref=1 / me_range=16 / chroma_me=1 / trellis=1 / 8x8dct=1 / cqm=0 / deadzone=21,11 / fast_pskip=1 / chroma_qp_offset=-3 / threads=11 / lookahead_threads=1 / sliced_threads=0 / nr=0 / decimate=1 / interlaced=0 / bluray_compat=0 / constrained_intra=0 / fgo=0 / bframes=8 / b_pyramid=1 / b_adapt=1 / b_bias=0 / direct=1 / weightb=1 / open_gop=0 / weightp=2 / keyint=250 / keyint_min=25 / scenecut=40 / intra_refresh=0 / rc_lookahead=40 / rc=2pass / mbtree=1 / bitrate=1500 / ratetol=1.0 / qcomp=0.60 / qpmin=0 / qpmax=69 / qpstep=4 / cplxblur=20.0 / qblur=0.5 / vbv_maxrate=31250 / vbv_bufsize=31250 / nal_hrd=none / filler=0 / ip_ratio=1.40 / aq=1:1.00

Audio
ID                                       : 2
Format                                   : AAC
Format/Info                              : Advanced Audio Codec
Format profile                           : LC
Codec ID                                 : 40
Duration                                 : 1h 34mn
Duration_LastFrame                       : 43ms
Bit rate mode                            : Constant
Bit rate                                 : 192 Kbps
Channel(s)                               : 2 channels
Channel(s)_Original                      : 6 channels
Channel positions                        : Front: L C R, Side: L R, LFE
Sampling rate                            : 48.0 KHz
Compression mode                         : Lossy
Stream size                              : 130 MiB (11%)

Post Reply

Return to “Other HD (a720p, 720p, 810p, 1080i)”