U.Turn.(1997).BDRip.720p.AC3.X264-Rodosky [ES/EN]

Encodes in the resolutions a720p, 720p, 810p and 1080i, and in irregular HD resolutions, retail (BluRay, HDDVD) or non-retail (WEB, HDTV) sources, with one or more foreign language audio tracks (can additionally include one or more English tracks). This section does not include animated or TV/documentary films, it does however include black & white movies.
Post Reply
erdamon
Registered user
Registered user
Posts: 1291
Joined: Sat Oct 14, 2006 12:00 am
Been thanked: 4 times

U.Turn.(1997).BDRip.720p.AC3.X264-Rodosky [ES/EN]

Post by erdamon » Wed Jan 21, 2015 7:53 pm

U Turn (1997)

Image

http://www.IMDb.com/title/tt0120399/

Storyline: A drifter becomes entangled with a femme fatale and her husband after his car breaks down in their small Southwest town.

Code: Select all

General
Complete name                    : D:\eMule\Incoming\Giro.al.infierno.(U.Turn.1997).(Spanish.English.Subs).BDRip.720p.x264-AC3.by.rodosky.mkv
Format                           : Matroska
File size                        : 3.08 GiB
Duration                         : 2h 4mn
Overall bit rate                 : 3 547 Kbps
Encoded date                     : UTC 2014-10-02 10:21:26
Writing application              : mkvmerge v6.7.0 ('Back to the Ground') 64bit built on Jan  8 2014 15:10:52
Writing library                  : libebml v1.3.0 + libmatroska v1.4.1

Video
ID                               : 1
Format                           : AVC
Format/Info                      : Advanced Video Codec
Format profile                   : High@L4.1
Format settings, CABAC           : Yes
Format settings, ReFrames        : 4 frames
Muxing mode                      : Container profile=Unknown@4.1
Codec ID                         : V_MPEG4/ISO/AVC
Duration                         : 2h 4mn
Bit rate                         : 2 580 Kbps
Nominal bit rate                 : 2 649 Kbps
Width                            : 1 280 pixels
Height                           : 688 pixels
Display aspect ratio             : 1.860
Frame rate                       : 23.976 fps
Resolution                       : 8 bits
Colorimetry                      : 4:2:0
Scan type                        : Progressive
Bits/(Pixel*Frame)               : 0.122
Stream size                      : 2.24 GiB (73%)
Title                            : Giro al infierno - U Turn - 1997
Writing library                  : x264 core 142 r2431 ac76440
Encoding settings                : cabac=1 / ref=3 / deblock=1:-1:-1 / analyse=0x3:0x113 / me=hex /
                                   subme=7 / psy=1 / psy_rd=1.00:0.15 / mixed_ref=1 / me_range=16 /
                                   chroma_me=1 / trellis=1 / 8x8dct=1 / cqm=0 / deadzone=21,11 /
                                   fast_pskip=1 / chroma_qp_offset=-3 / threads=6 / lookahead_threads=1 /
                                   sliced_threads=0 / nr=0 / decimate=1 / interlaced=0 / bluray_compat=0 /
                                   constrained_intra=0 / bframes=3 / b_pyramid=2 / b_adapt=1 / b_bias=0 /
                                   direct=1 / weightb=1 / open_gop=0 / weightp=2 / keyint=240 /
                                   keyint_min=23 / scenecut=40 / intra_refresh=0 / rc_lookahead=40 /
                                   rc=2pass / mbtree=1 / bitrate=2649 / ratetol=1.0 / qcomp=0.60 /
                                   qpmin=0 / qpmax=69 / qpstep=4 / cplxblur=20.0 / qblur=0.5 /
                                   vbv_maxrate=62500 / vbv_bufsize=78125 / nal_hrd=none /
                                   filler=0 / ip_ratio=1.40 / aq=1:1.00
Language                         : Spanish

Audio #1
ID                               : 2
Format                           : AC-3
Format/Info                      : Audio Coding 3
Codec ID                         : A_AC3
Duration                         : 2h 4mn
Bit rate mode                    : Constant
Bit rate                         : 448 Kbps
Channel(s)                       : 6 channels
Channel positions                : Front: L C R, Surround: L R, LFE
Sampling rate                    : 48.0 KHz
Stream size                      : 399 MiB (13%)
Title                            : Castellano
Language                         : Spanish

Audio #2
ID                               : 3
Format                           : AC-3
Format/Info                      : Audio Coding 3
Codec ID                         : A_AC3
Duration                         : 2h 4mn
Bit rate mode                    : Constant
Bit rate                         : 448 Kbps
Channel(s)                       : 6 channels
Channel positions                : Front: L C R, Surround: L R, LFE
Sampling rate                    : 48.0 KHz
Stream size                      : 399 MiB (13%)

Text #1
ID                               : 4
Format                           : UTF-8
Codec ID                         : S_TEXT/UTF8
Codec ID/Info                    : UTF-8 Plain Text
Language                         : Spanish

Text #2
ID                               : 5
Format                           : UTF-8
Codec ID                         : S_TEXT/UTF8
Codec ID/Info                    : UTF-8 Plain Text

Image
Image
Image Image Image Image Image


Giro.al.infierno.(U.Turn.1997).(Spanish.English.Subs).BDRip.720p.x264-AC3.by.rodosky.mkv  [3.08 Gb]

Post Reply

Return to “Other HD (a720p, 720p, 810p, 1080i)”