It's.a.Wonderful.Life.(1946).B&W.FS.BDRip.720p.AC3.X264-DXC [ES/EN]

Encodes in the resolutions a720p, 720p, 810p and 1080i, and in irregular HD resolutions, retail (BluRay, HDDVD) or non-retail (WEB, HDTV) sources, with one or more foreign language audio tracks (can additionally include one or more English tracks). This section does not include animated or TV/documentary films, it does however include black & white movies.
Post Reply
IoNeL
Banned
Posts: 1415
Joined: Tue Mar 17, 2009 11:53 pm
Been thanked: 2 times

It's.a.Wonderful.Life.(1946).B&W.FS.BDRip.720p.AC3.X264-DXC [ES/EN]

Post by IoNeL » Wed Jan 07, 2015 9:34 pm

[glow=red]It's a Wonderful Life[/glow] (1946)

(a.k.a. ¡Qué bello es vivir)
Image
Image
http://www.IMDb.com/title/tt0038650/
An angel helps a compassionate but despairingly frustrated businessman by showing what life would have been like if he never existed.

Code: Select all

General
Unique ID                                : 189675137489372457131750089419190460663 (0x8EB21A4A864ADA54906F18B2B46C60F7)
Complete name                            : It's.a.Wonderful.Life.(1946).(esp-eng).B&W.FS.BDRip.720p.AC3.x264-DXC.mkv
Format                                   : Matroska
Format version                           : Version 4 / Version 2
File size                                : 3.52 GiB
Duration                                 : 2h 10mn
Overall bit rate                         : 3 863 Kbps
Encoded date                             : UTC 2013-12-24 11:22:24
Writing application                      : mkvmerge v6.3.0 ('You can't stop me!') built on Jun 28 2013 20:09:41
Writing library                          : libebml v1.3.0 + libmatroska v1.4.0

Video
ID                                       : 1
Format                                   : AVC
Format/Info                              : Advanced Video Codec
Format profile                           : High@L4.1
Format settings, CABAC                   : Yes
Format settings, ReFrames                : 11 frames
Codec ID                                 : V_MPEG4/ISO/AVC
Duration                                 : 2h 10mn
Bit rate                                 : 3 306 Kbps
Width                                    : 968 pixels
Height                                   : 720 pixels
Display aspect ratio                     : 4:3
Frame rate mode                          : Constant
Frame rate                               : 23.976 fps
Color space                              : YUV
Chroma subsampling                       : 4:2:0
Bit depth                                : 8 bits
Scan type                                : Progressive
Bits/(Pixel*Frame)                       : 0.198
Stream size                              : 3.02 GiB (86%)
Writing library                          : x264 core 133 r2334 a3ac64b
Encoding settings                        : cabac=1 / ref=11 / deblock=1:-1:-1 / analyse=0x3:0x133 / me=umh / subme=10 / psy=1 / psy_rd=1.00:0.15 / mixed_ref=1 / me_range=24 / chroma_me=1 / trellis=2 / 8x8dct=1 / cqm=0 / deadzone=21,11 / fast_pskip=1 / chroma_qp_offset=-3 / threads=18 / lookahead_threads=3 / sliced_threads=0 / nr=0 / decimate=1 / interlaced=0 / bluray_compat=0 / constrained_intra=0 / bframes=8 / b_pyramid=2 / b_adapt=2 / b_bias=0 / direct=3 / weightb=1 / open_gop=0 / weightp=2 / keyint=250 / keyint_min=23 / scenecut=40 / intra_refresh=0 / rc_lookahead=60 / rc=crf / mbtree=1 / crf=18.0 / qcomp=0.60 / qpmin=0 / qpmax=69 / qpstep=4 / ip_ratio=1.40 / aq=1:1.00
Language                                 : English
Default                                  : Yes
Forced                                   : No

Audio #1
ID                                       : 2
Format                                   : AC-3
Format/Info                              : Audio Coding 3
Mode extension                           : CM (complete main)
Format settings, Endianness              : Big
Codec ID                                 : A_AC3
Duration                                 : 2h 10mn
Bit rate mode                            : Constant
Bit rate                                 : 256 Kbps
Channel(s)                               : 2 channels
Channel positions                        : Front: L R
Sampling rate                            : 48.0 KHz
Bit depth                                : 16 bits
Compression mode                         : Lossy
Stream size                              : 239 MiB (7%)
Title                                    : Espaסol
Language                                 : Spanish
Default                                  : Yes
Forced                                   : No

Audio #2
ID                                       : 3
Format                                   : AC-3
Format/Info                              : Audio Coding 3
Mode extension                           : CM (complete main)
Format settings, Endianness              : Big
Codec ID                                 : A_AC3
Duration                                 : 2h 10mn
Bit rate mode                            : Constant
Bit rate                                 : 224 Kbps
Channel(s)                               : 2 channels
Channel positions                        : Front: L R
Sampling rate                            : 48.0 KHz
Bit depth                                : 16 bits
Compression mode                         : Lossy
Stream size                              : 209 MiB (6%)
Title                                    : Inglיs
Language                                 : English
Default                                  : No
Forced                                   : No

Text #1
ID                                       : 4
Format                                   : UTF-8
Codec ID                                 : S_TEXT/UTF8
Codec ID/Info                            : UTF-8 Plain Text
Title                                    : Forzados
Language                                 : Spanish
Default                                  : Yes
Forced                                   : Yes

Text #2
ID                                       : 5
Format                                   : UTF-8
Codec ID                                 : S_TEXT/UTF8
Codec ID/Info                            : UTF-8 Plain Text
Title                                    : Espaסol
Language                                 : Spanish
Default                                  : No
Forced                                   : No

Text #3
ID                                       : 6
Format                                   : UTF-8
Codec ID                                 : S_TEXT/UTF8
Codec ID/Info                            : UTF-8 Plain Text
Title                                    : Inglיs
Language                                 : English
Default                                  : No
Forced                                   : No

Post Reply

Return to “Other HD (a720p, 720p, 810p, 1080i)”