Dracula.(1979).HDTVRip.720p.AC3.X264-FrOnkY [EN/ES]

Encodes in the resolutions a720p, 720p, 810p and 1080i, and in irregular HD resolutions, retail (BluRay, HDDVD) or non-retail (WEB, HDTV) sources, with one or more foreign language audio tracks (can additionally include one or more English tracks). This section does not include animated or TV/documentary films, it does however include black & white movies.
Post Reply
erdamon
Registered user
Registered user
Posts: 1179
Joined: Sat Oct 14, 2006 12:00 am
Been thanked: 2 times

Dracula.(1979).HDTVRip.720p.AC3.X264-FrOnkY [EN/ES]

Post by erdamon » Thu Nov 20, 2014 2:22 am

Dracula (1979)

Image

http://www.IMDb.com/title/tt0079073/

Storyline: When a ship is wrecked off Whitby, the only survivor, Count Dracula, is discovered lying on the beach by the sickly young Mina Van Helsing, who is visiting her dear friend Lucy Seward. Lucy, her fiancé Jonathan Harker (a solicitor), and her father Dr. Jack Seward (who runs the local asylum) try to make the Count feel welcome to England. The Count quickly takes the life of Mina, and proceeds to romance Lucy, with the intention of making her his greatest bride. Soon after the death of Mina, the Sewards call her father Dr. Abraham Van Helsing to come to their home. As Lucy falls deeper under the spell of the Count, Dr. Van Helsing almost immediately comes to understand that his daughter fell prey to a vampire and discovers the culprit to be none other than the Count himself. Dr. Van Helsing, Dr. Seward, and Harker work together to foil the Count's plans to take Lucy away to his native Transylvania.

Code: Select all

General
Complete name                    : D:\eMule\Incoming\Dracula.(1979).(Spanish.English.Subs).HDRip.720p.x264-AC3.by.Fronky.&.Basiccaos.mkv
Format                           : Matroska
File size                        : 2.83 GiB
Duration                         : 1h 49mn
Overall bit rate                 : 3 720 Kbps
Movie name                       : Dracula.1979.HQTV.720p.x264.AC3.[FrOnkY+Bazy=HDmEntEs]
Encoded date                     : UTC 2013-01-23 20:38:46
Writing application              : mkvmerge v3.4.0 ('Rapunzel') built on May 15 2010 09:38:20
Writing library                  : libebml v0.8.0 + libmatroska v0.9.0

Video
ID                               : 1
Format                           : AVC
Format/Info                      : Advanced Video Codec
Format profile                   : High@L4.1
Format settings, CABAC           : Yes
Format settings, ReFrames        : 12 frames
Muxing mode                      : Container profile=Unknown@4.1
Codec ID                         : V_MPEG4/ISO/AVC
Duration                         : 1h 48mn
Bit rate                         : 3 262 Kbps
Nominal bit rate                 : 3 333 Kbps
Width                            : 1 280 pixels
Height                           : 528 pixels
Display aspect ratio             : 2.40:1
Frame rate                       : 23.976 fps
Resolution                       : 8 bits
Colorimetry                      : 4:2:0
Scan type                        : Progressive
Bits/(Pixel*Frame)               : 0.201
Stream size                      : 2.48 GiB (88%)
Writing library                  : x264 core 129 r2230 1cffe9f
Encoding settings                : cabac=1 / ref=12 / deblock=1:-3:-3 / analyse=0x3:0x133 / me=umh /
                                   subme=10 / psy=1 / psy_rd=1.00:0.25 / mixed_ref=1 / me_range=24 /
                                   chroma_me=1 / trellis=2 / 8x8dct=1 / cqm=0 / deadzone=6,6 /
                                   fast_pskip=1 / chroma_qp_offset=-4 / threads=6 / lookahead_threads=1 /
                                   sliced_threads=0 / nr=0 / decimate=0 / interlaced=0 / bluray_compat=0 /
                                   constrained_intra=0 / bframes=8 / b_pyramid=2 / b_adapt=2 / b_bias=0 /
                                   direct=3 / weightb=1 / open_gop=0 / weightp=2 / keyint=250 /
                                   keyint_min=23 / scenecut=40 / intra_refresh=0 / rc_lookahead=60 /
                                   rc=2pass / mbtree=1 / bitrate=3333 / ratetol=1.0 / qcomp=0.80 / qpmin=0 /
                                   qpmax=69 / qpstep=4 / cplxblur=20.0 / qblur=0.5 / ip_ratio=1.10 / aq=1:0.50
Language                         : English

Audio #1
ID                               : 2
Format                           : AC-3
Format/Info                      : Audio Coding 3
Codec ID                         : A_AC3
Duration                         : 1h 49mn
Bit rate mode                    : Constant
Bit rate                         : 192 Kbps
Channel(s)                       : 2 channels
Channel positions                : L R
Sampling rate                    : 48.0 KHz
Stream size                      : 150 MiB (5%)
Title                            : [192Kbps,48KHz,2ch,AC-3]
Language                         : English

Audio #2
ID                               : 3
Format                           : AC-3
Format/Info                      : Audio Coding 3
Codec ID                         : A_AC3
Duration                         : 1h 49mn
Bit rate mode                    : Constant
Bit rate                         : 192 Kbps
Channel(s)                       : 2 channels
Channel positions                : L R
Sampling rate                    : 48.0 KHz
Stream size                      : 150 MiB (5%)
Title                            : [192Kbps,48KHz,2ch,AC-3]
Language                         : Spanish

Text #1
ID                               : 4
Format                           : UTF-8
Codec ID                         : S_TEXT/UTF8
Codec ID/Info                    : UTF-8 Plain Text
Language                         : English

Text #2
ID                               : 5
Format                           : UTF-8
Codec ID                         : S_TEXT/UTF8
Codec ID/Info                    : UTF-8 Plain Text
Language                         : Spanish

Text #3
ID                               : 6
Format                           : UTF-8
Codec ID                         : S_TEXT/UTF8
Codec ID/Info                    : UTF-8 Plain Text
Title                            : [Forzados]
Language                         : Spanish

Menu
00:00:00.000                     : en:Ship of the Damned
00:03:57.000                     : en:Lone Survivor
00:10:05.000                     : en:Dracula鈥檚 Baggage
00:15:46.000                     : en:Welcoming Party
00:23:57.000                     : en:Midnight Encounters
00:30:03.000                     : en:Innocent Victim
00:35:45.000                     : en:Business at the Castle
00:41:16.000                     : en:Van Helsing鈥檚 Arrival
00:44:54.000                     : en:Intimate Dinner
00:52:36.000                     : en:A Father鈥檚 Gift
00:57:09.000                     : en:United For Eternity
01:04:00.000                     : en:Family Reunion
01:10:30.000                     : en:Casting out Evil
01:14:31.000                     : en:Wild Work to be Done
01:19:48.000                     : en:King of His Kind
01:25:07.000                     : en:Healing Lucy
01:30:41.000                     : en:Supernatural Love
01:39:55.000                     : en:Last Voyage

Image
Image
Image Image Image Image Image


Dracula.(1979).(Spanish.English.Subs).HDRip.720p.x264-AC3.by.Fronky.&.Basiccaos.mkv  [2.83 Gb]

Post Reply

Return to “Other HD (a720p, 720p, 810p, 1080i)”