Bullets.over.Broadway.(1994).BDRip.720p.AC3.X264-DMMD [ES/EN]

Encodes in the resolutions a720p, 720p, 810p and 1080i, and in irregular HD resolutions, retail (BluRay, HDDVD) or non-retail (WEB, HDTV) sources, with one or more foreign language audio tracks (can additionally include one or more English tracks). This section does not include animated or TV/documentary films, it does however include black & white movies.
Post Reply
erdamon
Registered user
Registered user
Posts: 1063
Joined: Sat Oct 14, 2006 12:00 am
Been thanked: 10 times

Bullets.over.Broadway.(1994).BDRip.720p.AC3.X264-DMMD [ES/EN]

Post by erdamon » Sat Sep 20, 2014 6:49 pm

Bullets Over Broadway (1994)

Image

http://www.IMDb.com/title/tt0109348/

Storyline: In 1920s New York, a struggling playwright is forced to cast a mobster's talentless girlfriend in his latest drama in order to get it produced.

Code: Select all

General
Complete name                    : D:\eMule\Incoming\Bullets.over.Broadway.(1994).BDRip.720p.x264.AC3.by.DMMD.mkv
Format                           : Matroska
File size                        : 2.54 GiB
Duration                         : 1h 38mn
Overall bit rate                 : 3 686 Kbps
Movie name                       : Bullets.Over.Broadway.1994.720p.by.DMMD(HDCL)
Encoded date                     : UTC 2012-03-31 18:15:55
Writing application              : mkvmerge v5.3.0 ('I could have danced') built on Feb  9 2012 10:38:07
Writing library                  : libebml v1.2.3 + libmatroska v1.3.0

Video
ID                               : 1
Format                           : AVC
Format/Info                      : Advanced Video Codec
Format profile                   : High@L4.1
Format settings, CABAC           : Yes
Format settings, ReFrames        : 9 frames
Muxing mode                      : Container profile=Unknown@4.1
Codec ID                         : V_MPEG4/ISO/AVC
Duration                         : 1h 38mn
Bit rate                         : 3 229 Kbps
Width                            : 1 278 pixels
Height                           : 680 pixels
Display aspect ratio             : 1.879
Frame rate                       : 24.000 fps
Resolution                       : 8 bits
Colorimetry                      : 4:2:0
Scan type                        : Progressive
Bits/(Pixel*Frame)               : 0.155
Stream size                      : 2.23 GiB (88%)
Writing library                  : x264 core 120 r2164 da19765
Encoding settings                : cabac=1 / ref=9 / deblock=1:-1:-1 / analyse=0x3:0x133 / me=umh / subme=10 /
                                   psy=1 / psy_rd=1.00:0.15 / mixed_ref=1 / me_range=24 / chroma_me=1 / trellis=2 /
                                   8x8dct=1 / cqm=0 / deadzone=21,11 / fast_pskip=1 / chroma_qp_offset=-3 /
                                   threads=6 / sliced_threads=0 / nr=0 / decimate=1 / interlaced=0 /
                                   bluray_compat=0 / constrained_intra=0 / bframes=8 / b_pyramid=2 / b_adapt=2 /
                                   b_bias=0 / direct=3 / weightb=1 / open_gop=0 / weightp=2 / keyint=250 /
                                   keyint_min=24 / scenecut=40 / intra_refresh=0 / rc_lookahead=60 / rc=crf /
                                   mbtree=1 / crf=20.0 / qcomp=0.60 / qpmin=0 / qpmax=69 /
                                   qpstep=4 / ip_ratio=1.40 / aq=1:1.00

Audio #1
ID                               : 2
Format                           : AC-3
Format/Info                      : Audio Coding 3
Codec ID                         : A_AC3
Duration                         : 1h 38mn
Bit rate mode                    : Constant
Bit rate                         : 192 Kbps
Channel(s)                       : 2 channels
Channel positions                : L R
Sampling rate                    : 48.0 KHz
Stream size                      : 136 MiB (5%)
Language                         : Spanish

Audio #2
ID                               : 3
Format                           : AC-3
Format/Info                      : Audio Coding 3
Codec ID                         : A_AC3
Duration                         : 1h 38mn
Bit rate mode                    : Constant
Bit rate                         : 192 Kbps
Channel(s)                       : 2 channels
Channel positions                : L R
Sampling rate                    : 48.0 KHz
Stream size                      : 136 MiB (5%)
Language                         : English

Text #1
ID                               : 4
Format                           : UTF-8
Codec ID                         : S_TEXT/UTF8
Codec ID/Info                    : UTF-8 Plain Text
Language                         : Spanish

Text #2
ID                               : 5
Format                           : UTF-8
Codec ID                         : S_TEXT/UTF8
Codec ID/Info                    : UTF-8 Plain Text

Image
Image
Image Image Image Image Image


Bullets.over.Broadway.(1994).BDRip.720p.x264.AC3.by.DMMD.mkv  [2.54 Gb]

Post Reply

Return to “Other HD (a720p, 720p, 810p, 1080i)”