Salon.Kitty.(1976).UNCUT.BDRip.720p.DTS.X264-MSD [EN/DE]

Encodes in the resolutions a720p, 720p, 810p and 1080i, and in irregular HD resolutions, retail (BluRay, HDDVD) or non-retail (WEB, HDTV) sources, with one or more foreign language audio tracks (can additionally include one or more English tracks). This section does not include animated or TV/documentary films, it does however include black & white movies.
Post Reply
the original baz
Registered user
Registered user
Posts: 349
Joined: Fri Oct 10, 2008 2:50 am

Salon.Kitty.(1976).UNCUT.BDRip.720p.DTS.X264-MSD [EN/DE]

Post by the original baz » Sat Apr 16, 2011 12:25 pm

Image
  General
    Complete name : Salon.Kitty.(1976).UNCUT.BDRip.720p.DTS.x264-MSD.mkv
    Format : Matroska
    File size : 6.74 GiB
    Duration : 2h 13mn
    Overall bit rate : 7 240 Kbps
    Encoded date : UTC 2010-12-09 12:12:43
    Writing application : mkvmerge v4.4.0 ('Die Wiederkehr') gebaut am Oct 31 2010 21:52:48
    Writing library : libebml v1.0.0 + libmatroska v1.0.0
  Video #1
    ID : 1
    Format : AVC
    Format/Info : Advanced Video Codec
    Format profile : High@L4.1
    Format settings, CABAC : Yes
    Format settings, ReFrames : 5 frames
    Muxing mode : Container profile=Unknown@4.1
    Codec ID : V_MPEG4/ISO/AVC
    Duration : 2h 13mn
    Bit rate : 6 280 Kbps
    Width : 1 280 pixels
    Height : 688 pixels
    Display aspect ratio : 1.860
    Frame rate : 23.976 fps
    Color space : YUV
    Chroma subsampling : 4:2:0
    Bit depth : 8 bits
    Scan type : Progressive
    Bits/(Pixel*Frame) : 0.297
    Stream size : 5.72 GiB (85%)
    Writing library : x264 core 110 r1804 e89c4cf
  Audio #2
    ID : 2
    Format : DTS
    Format/Info : Digital Theater Systems
    Codec ID : A_DTS
    Duration : 2h 13mn
    Bit rate mode : Constant
    Bit rate : 755 Kbps
    Channel(s) : 1 channel
    Channel positions : Mono
    Sampling rate : 48.0 KHz
    Bit depth : 24 bits
    Stream size : 719 MiB (10%)
    Language : English
  Audio #3
    ID : 3
    Format : AC-3
    Format/Info : Audio Coding 3
    Mode extension : CM (complete main)
    Codec ID : A_AC3
    Duration : 2h 13mn
    Bit rate mode : Constant
    Bit rate : 192 Kbps
    Channel(s) : 2 channels
    Channel positions : Front: L R
    Sampling rate : 48.0 KHz
    Bit depth : 16 bits
    Video delay : 10ms
    Stream size : 183 MiB (3%)
    Language : German
  Text #4
    ID : 4
    Format : UTF-8
    Codec ID : S_TEXT/UTF8
    Codec ID/Info : UTF-8 Plain Text
    Title : Forced
    Language : German
  Text #5
    ID : 5
    Format : UTF-8
    Codec ID : S_TEXT/UTF8
    Codec ID/Info : UTF-8 Plain Text
    Language : English


User avatar
T A U
Donator
Donator
Posts: 108
Joined: Tue Jun 27, 2006 2:48 am
Has thanked: 19 times

Re: Salon.Kitty.(1976).UNCUT.BDRip.720p.DTS.X264-Msd [EN/DE]

Post by T A U » Mon May 07, 2012 9:18 am

Thanks

shadow36845
Newly registered user
Newly registered user
Posts: 1
Joined: Fri Aug 10, 2012 8:40 pm

Re: Salon.Kitty.(1976).UNCUT.BDRip.720p.DTS.X264-Msd [EN/DE]

Post by shadow36845 » Fri Aug 10, 2012 8:44 pm

Thanks

The Singer
Registered user
Registered user
Posts: 210
Joined: Sun Jul 20, 2008 9:00 am
Location: Brazil

Re: Salon.Kitty.(1976).UNCUT.BDRip.720p.DTS.X264-Msd [EN/DE]

Post by The Singer » Sun Aug 26, 2012 9:33 pm

:thumbs :thumbs

IoNeL
Banned
Posts: 1415
Joined: Tue Mar 17, 2009 11:53 pm
Been thanked: 2 times

Re: Salon.Kitty.(1976).UNCUT.BDRip.720p.DTS.X264-Msd [EN/DE]

Post by IoNeL » Mon Nov 17, 2014 4:59 am

Image

Post Reply

Return to “Other HD (a720p, 720p, 810p, 1080i)”