Che.Part.Two.(2008).LiMiTED.BDRip.720p.DTS.X264-REVEiLLE [ES]

Encodes in the resolutions a720p, 720p, 810p and 1080i, and in irregular HD resolutions, retail (BluRay, HDDVD) or non-retail (WEB, HDTV) sources, with one or more foreign language audio tracks (can additionally include one or more English tracks). This section does not include animated or TV/documentary films, it does however include black & white movies.
Post Reply
pinboard
Registered user
Registered user
Posts: 66
Joined: Thu Feb 19, 2009 4:29 am

Che.Part.Two.(2008).LiMiTED.BDRip.720p.DTS.X264-REVEiLLE [ES]

Post by pinboard » Thu Jul 02, 2009 12:44 am

Image
Che.Part.Two.(2008).LIMITED.720p.BluRay.x264-REVEiLLE

---Movie Information---
title       : Che: Part Two
runtime     : 135 minutes
street date : 2009
year        : 2008

---IMDb Information---
link    : http://www.IMDb.com/title/tt0374569/
rating  : 7.0/10
votes   : 3,757 votes

---Source Information---
format       : BluRay
resolution   : 1080p
video codec  : MPEG4 AVC
aspect ratio : 1.78:1

---Video Information---
container  : mkv
codec      : x264
bitrate    : 5414 kbps
resolution : 720p (1280x720)
frames/sec : 23.976

---Audio Information---
codec     : DTS 5.1
bitrate   : 1509 kpbs
subtitles : English
General
Complete name                    : rev-che2.mkv
Format                           : Matroska
File size                        : 6.53 GiB
Duration                         : 2h 15mn
Overall bit rate                 : 6 925 Kbps
Encoded date                     : UTC 2009-06-25 12:10:41
Writing application              : mkvmerge v2.7.0 ('Do It Again') built on Apr 15 2009 00:27:10
Writing library                  : libebml v0.7.7 + libmatroska v0.8.1

Video
ID                               : 1
Format                           : AVC
Format/Info                      : Advanced Video Codec
Format profile                   : High@L4.1
Format settings, CABAC           : Yes
Format settings, ReFrames        : 5 frames
Muxing mode                      : Container profile=Unknown@4.1
Codec ID                         : V_MPEG4/ISO/AVC
Duration                         : 2h 14mn
Bit rate                         : 5 278 Kbps
Nominal bit rate                 : 5 414 Kbps
Width                            : 1 280 pixels
Height                           : 720 pixels
Display aspect ratio             : 16:9
Frame rate                       : 23.976 fps
Resolution                       : 8 bits
Colorimetry                      : 4:2:0
Scan type                        : Progressive
Bits/(Pixel*Frame)               : 0.239
Stream size                      : 4.97 GiB (76%)
Writing library                  : x264 core 67 r1171 2c7cb4c
Encoding settings                : cabac=1 / ref=5 / deblock=1:0:0 / analyse=0x3:0x133 / me=umh /
                                   subme=7 / psy_rd=1.0:0.0 / mixed_ref=1 / me_range=16 / chroma_me=1 /
                                   trellis=1 / 8x8dct=1 / cqm=0 / deadzone=21,11 / chroma_qp_offset=-2 /
                                   threads=3 / nr=0 / decimate=1 / mbaff=0 / bframes=3 / b_pyramid=1 /
                                   b_adapt=1 / b_bias=0 / direct=1 / wpredb=1 / keyint=250 /
                                   keyint_min=25 / scenecut=40 / rc=2pass / bitrate=5414 / ratetol=1.0 /
                                   qcomp=0.60 / qpmin=10 / qpmax=51 / qpstep=4 / cplxblur=20.0 /
                                   qblur=0.5 / ip_ratio=1.40 / pb_ratio=1.30 / aq=1:1.00
Language                         : Spanish

Audio
ID                               : 2
Format                           : DTS
Format/Info                      : Digital Theater Systems
Codec ID                         : A_DTS
Duration                         : 2h 15mn
Bit rate mode                    : Constant
Bit rate                         : 1 510 Kbps
Channel(s)                       : 6 channels
Channel positions                : Front: L C R, Surround: L R, LFE
Sampling rate                    : 48.0 KHz
Resolution                       : 24 bits
Stream size                      : 1.42 GiB (22%)
Language                         : Spanish

Text
ID                               : 3
Format                           : UTF-8
Codec ID                         : S_TEXT/UTF8
Codec ID/Info                    : UTF-8 Plain Text
Language                         : English

hardhawk
Registered user
Registered user
Posts: 192
Joined: Fri Aug 18, 2006 2:33 pm

Re: Che.Part.Two.(2008).LiMiTED.BDRip.720p.DTS.X264-REVEiLLE [ES]

Post by hardhawk » Mon May 30, 2011 4:38 pm

:pir8 THANK YOU :pir8

Thelastboyscout
Donator
Donator
Posts: 2357
Joined: Fri Apr 24, 2009 1:06 pm
Location: An Mhi.Ireland
Has thanked: 44 times

Re: Che.Part.Two.(2008).LiMiTED.BDRip.720p.DTS.X264-REVEiLLE [ES]

Post by Thelastboyscout » Tue Nov 11, 2014 12:15 pm

Replacing my DVDRip...Thanks... :clap

Post Reply

Return to “Other HD (a720p, 720p, 810p, 1080i)”