There's A Hippo In My House (2007)

For educational and documentary series, from History Channel, National Geographic, etc.
Post Reply
emoneypitt
Donator
Donator
Posts: 524
Joined: Sat Jun 16, 2007 11:11 am
Location: USA
Been thanked: 1 time

There's A Hippo In My House (2007)

Post by emoneypitt » Sat Oct 09, 2010 8:39 am

There's A Hippo In My House

One-off documentary recounting the tale of Tonie and Shirley Joubert, a South African couple who took the decision to adopt and rear one of the most dangerous mammals in the world.

Review of the show available here ---> http://www.metro.co.uk/tv/843125-there- ... et-trained

Code: Select all

Complete name : There's.A.Hippo.In.My.House.PDTV.XviD-FTP.avi 
Format : AVI 
Format/Info : Audio Video Interleave 
File size : 347 MiB 
Duration : 44mn 59s 
Overall bit rate : 1 077 Kbps 
Writing application : VirtualDubMod 1.5.10.2 (build 2540/release) 
Writing library : VirtualDub build 29896/release 

Video 
ID : 0 
Format : MPEG-4 Visual 
Format profile : Advanced Simple@L5 
Format settings, BVOP : Yes 
Format settings, QPel : No 
Format settings, GMC : No warppoints 
Format settings, Matrix : Default (H.263) 
Muxing mode : Packed bitstream 
Codec ID : XviD 
Codec ID/Hint : XviD 
Duration : 44mn 59s 
Bit rate : 942 Kbps 
Width : 640 pixels 
Height : 352 pixels 
Display aspect ratio : 16:9 
Frame rate : 25.000 fps 
Resolution : 8 bits 
Colorimetry : 4:2:0 
Scan type : Progressive 
Bits/(Pixel*Frame) : 0.167 
Stream size : 303 MiB (87%) 
Writing library : XviD 1.2.1 (UTC 2008-12-04) 

Audio 
ID : 1 
Format : MPEG Audio 
Format version : Version 1 
Format profile : Layer 3 
Mode : Joint stereo 
Format_Settings_ModeExtension : MS Stereo 
Codec ID : 55 
Codec ID/Hint : MP3 
Duration : 44mn 59s 
Bit rate mode : Variable 
Bit rate : 122 Kbps 
Nominal bit rate : 128 Kbps 
Channel(s) : 2 channels 
Sampling rate : 48.0 KHz 
Stream size : 39.2 MiB (11%) 
Alignment : Aligned on interleaves 
Interleave, duration : 24 ms (0.60 video frame) 
Interleave, preload duration : 519 ms 
Writing library : LAME3.97  
Encoding settings : -m j -V 4 -q 3 -lowpass 17 --abr 128 
ImageImageImageImageImage

This is mostly in English but the characters' speaking parts have hard coded subtitles throughout.

There's.A.Hippo.In.My.House.PDTV.XviD-FTP.avi  [346.55 Mb]

Post Reply

Return to “Educational”