Page 1 of 1

National Geographic - Penguin Death Zone (2005)

Posted: Thu Jun 10, 2010 10:14 am
by emoneypitt
National Geographic - Penguin Death Zone
We witness the growth of an African Penguin chick from birth to adulthood.

On Southern Africa's desolate West Coast, a new born African Penguin, Lucy, struggles for her life. She has just a ten percent chance of making it to adulthood and predators constantly lie in wait. Her parents have their hands full for the next four months, feeding and protecting her and her older brother. As they return from their daily fishing expeditions rogue seals ambush their fishing parties, stealing their hard won day's catch and endangering the lives of their dependent chicks.
http://natgeotv.com/asia/penguin-death-zone *Note: This show is also known as Penguins Under Siege.*

Code: Select all

Complete name : C:\Users\ed\Desktop\eMule Temp\Misc Share Folder\National.Geographic.Penguin.Death.Zone.720p.HDTV.x264-NGCHD.mkv 
Format : Matroska 
File size : 1.09 GiB 
Duration : 46mn 44s 
Overall bit rate : 3 345 Kbps 
Encoded date : UTC 2010-06-01 07:17:18 
Writing application : mkvmerge v3.3.0 ('Language') built on Mar 24 2010 14:59:24 
Writing library : libebml v0.8.0 + libmatroska v0.9.0 

Video 
ID : 1 
Format : AVC 
Format/Info : Advanced Video Codec 
Format profile : High@L4.1 
Format settings, CABAC : Yes 
Format settings, ReFrames : 5 frames 
Muxing mode : Container profile=Unknown@4.1 
Codec ID : V_MPEG4/ISO/AVC 
Duration : 46mn 44s 
Bit rate : 3 156 Kbps 
Width : 1 280 pixels 
Height : 720 pixels 
Display aspect ratio : 16:9 
Frame rate : 25.000 fps 
Resolution : 8 bits 
Colorimetry : 4:2:0 
Scan type : Progressive 
Bits/(Pixel*Frame) : 0.137 
Stream size : 1.01 GiB (92%) 
Writing library : x264 core 96 r1613 81e75e9 
Encoding settings : cabac=1 / ref=5 / deblock=1:0:0 / analyse=0x3:0x113 / me=umh / subme=6 / psy=1 / psy_rd=1.00:0.00 / mixed_ref=1 / me_range=16 / chroma_me=1 / trellis=1 / 8x8dct=1 / cqm=0 / deadzone=21,11 / fast_pskip=1 / chroma_qp_offset=-2 / threads=18 / sliced_threads=0 / nr=0 / decimate=1 / interlaced=0 / constrained_intra=0 / bframes=3 / b_pyramid=2 / b_adapt=1 / b_bias=0 / direct=1 / weightb=1 / weightp=2 / keyint=250 / keyint_min=25 / scenecut=40 / intra_refresh=0 / rc_lookahead=40 / rc=2pass / mbtree=1 / bitrate=3156 / ratetol=1.0 / qcomp=0.60 / qpmin=10 / qpmax=51 / qpstep=4 / cplxblur=20.0 / qblur=0.5 / ip_ratio=1.40 / aq=1:1.00 
Language : English 

Audio 
ID : 2 
Format : AC-3 
Format/Info : Audio Coding 3 
Format_Settings_ModeExtension : CM (complete main) 
Codec ID : A_AC3 
Duration : 46mn 44s 
Bit rate mode : Constant 
Bit rate : 192 Kbps 
Channel(s) : 2 channels 
Channel positions : Front: L R 
Sampling rate : 48.0 KHz 
Stream size : 64.2 MiB (6%) 
National.Geographic.Penguin.Death.Zone.720p.HDTV.x264-NGCHD.mkv  [1.09 Gb]