[MOTOCROSS] Travis and the Nitro Circus

Sports related links from all over the world.
Post Reply
tiagoguedes7
Newly registered user
Newly registered user
Posts: 6
Joined: Sun May 10, 2009 2:19 am

[MOTOCROSS] Travis and the Nitro Circus

Post by tiagoguedes7 » Sat Dec 19, 2009 12:36 am

Image

Site Oficial/Amazon

Image
Travis Pastrana took a few hours out of his marathon mountain bike ride and Rally Car race schedule to finally land his infamous 720 flip trick that went so wrong at X Games in the summer. Travis rode out of the completed trick, but renamed it the TP7 as he still needs 20 degrees of rotation to call it perfect! Chad Reed made a guest appearance as a Nitro Circus Crew member and took part in some explosive Supercross action caught in its full glory on super high speed cameras. The results were incredible! As a final gesture to confirm that Chad has really joined the Circus, he rode over to the scene of Travis' TP7 and proceeded to land his first ever back flip all on his full factory 450 Suzuki!

Code: Select all

Video
Codec: MPEG-4	
Bitrate: 1864 Kbps
Resolution: 704x400
Lenght: 56m

Audio
Codec: AAC LC
Bitrate: 128 Kbps
Frequency: 48 KHz
Language: English
Nitro.Circus.7.Country.Fried.2009.DVDRip.MPEG4-TPB.mp4  [810.31 Mb]

bushymait
Banned
Posts: 808
Joined: Sat Apr 05, 2008 3:59 pm
Been thanked: 18 times

[MOTOCROSS] Travis and the Nitro Circus

Post by bushymait » Thu Jan 27, 2011 12:01 pm


vasfilms.com wrote:Join Travis Pastrana and the Nitro Circus Thrillbillies gang as they invade and take over a motocross race in Costa Rica, compete in their own brand of Winter and Summer Olympics, and big wheel base jump ridiculous cliffs at Lake Powell! Travis also planes his motocross bike off of a floating ramp in the middle of a lake! Other adventures include Rally Car action with Ken Block, and an Evil Knievel tribute with guest, Johnny Knoxville. Plus, all the Nitro Circus non-sense you've come to expect. Double wide = double-fun!
General
Format                           : AVI
Format/Info                      : Audio Video Interleave
File size                        : 688 MiB
Duration                         : 1h 0mn
Overall bit rate                 : 1 597 Kbps

Video
ID                               : 0
Format                           : MPEG-4 Visual
Format profile                   : Simple@L3
Format settings, BVOP            : No
Format settings, QPel            : No
Format settings, GMC             : No warppoints
Format settings, Matrix          : Default (H.263)
Codec ID                         : XviD
Codec ID/Hint                    : XviD
Duration                         : 1h 0mn
Bit rate                         : 1 392 Kbps
Width                            : 640 pixels
Height                           : 360 pixels
Display aspect ratio             : 16:9
Frame rate                       : 25.000 fps
Color space                      : YUV
Chroma subsampling               : 4:2:0
Bit depth                        : 8 bits
Scan type                        : Progressive
Compression mode                 : Lossy
Bits/(Pixel*Frame)               : 0.242
Stream size                      : 599 MiB (87%)
Writing library                  : Magic0432

Audio
ID                               : 1
Format                           : MPEG Audio
Format version                   : Version 1
Format profile                   : Layer 3
Mode                             : Joint stereo
Mode extension                   : MS Stereo
Codec ID                         : 55
Codec ID/Hint                    : MP3
Duration                         : 1h 0mn
Bit rate mode                    : Constant
Bit rate                         : 192 Kbps
Channel(s)                       : 2 channels
Sampling rate                    : 44.1 KHz
Compression mode                 : Lossy
Stream size                      : 82.7 MiB (12%)
Alignment                        : Aligned on interleaves
Interleave, duration             : 26 ms (0.65 video frame)
Writing library                  : LAME3.97

bushymait
Banned
Posts: 808
Joined: Sat Apr 05, 2008 3:59 pm
Been thanked: 18 times

Travis and the Nitro Circus - Vol.3 2005

Post by bushymait » Thu Jan 27, 2011 12:28 pm


vasfilms.com wrote:NC3 is categorized as a Freestyle Motocross film. However, just like Travis Pastrana is much more than just a freestyle motocross star, the Nitro Circus series goes way beyond simply being a freestyle motocross film. It is a film about pushing the limits of human ability and spirit. Sometimes this comes across as heroic and other times as sheer insanity. In either case, NC3 is full of the most gnarly stunts you've ever seen. Join Travis Pastrana and the rest of the Nitro Circus clowns as they travel the world in search of the next big stunt or adventure. NC3 is being filmed in the U.S., Canada and throughout several countries in Europe.
General
Format                           : AVI
Format/Info                      : Audio Video Interleave
File size                        : 716 MiB
Duration                         : 58mn 25s
Overall bit rate                 : 1 714 Kbps

Video
ID                               : 0
Format                           : MPEG-4 Visual
Format settings, BVOP            : 1
Format settings, QPel            : No
Format settings, GMC             : No warppoints
Format settings, Matrix          : Default (H.263)
Muxing mode                      : Packed bitstream
Codec ID                         : DX50
Codec ID/Hint                    : DivX 5
Duration                         : 58mn 25s
Bit rate                         : 1 510 Kbps
Width                            : 576 pixels
Height                           : 464 pixels
Display aspect ratio             : 5:4
Frame rate                       : 29.970 fps
Color space                      : YUV
Chroma subsampling               : 4:2:0
Bit depth                        : 8 bits
Scan type                        : Progressive
Compression mode                 : Lossy
Bits/(Pixel*Frame)               : 0.189
Stream size                      : 631 MiB (88%)
Writing library                  : DivX 5.0.5 (UTC 2003-04-24)

Audio
ID                               : 1
Format                           : MPEG Audio
Format version                   : Version 1
Format profile                   : Layer 3
Codec ID                         : 55
Codec ID/Hint                    : MP3
Duration                         : 58mn 25s
Bit rate mode                    : Constant
Bit rate                         : 192 Kbps
Channel(s)                       : 2 channels
Sampling rate                    : 44.1 KHz
Compression mode                 : Lossy
Delay relative to video          : 26ms
Stream size                      : 80.2 MiB (11%)
Alignment                        : Split accross interleaves
Interleave, duration             : 33 ms (1.00 video frame)
Title                            : Audio Stream

bushymait
Banned
Posts: 808
Joined: Sat Apr 05, 2008 3:59 pm
Been thanked: 18 times

Travis and the Nitro Circus - Vol.1 2004

Post by bushymait » Thu Jan 27, 2011 5:40 pm

vasfilms.com wrote:Take a trip back to the circus for some of the most outrageous motocross antics ever as Godfrey Entertainment and biker Travis Pastrana team up with a who's who of riders to take on the most daring tracks from across the globe. With riders that include Jesse Olsen, Ronnie Renner, Drake McElroy, and Kenny Bartram, and exotic locales that include Austria, Italy, Czech Republic, Hawaii, and more, NC offers the kind of outrageous stunts and supercharged riding that seems to defy the laws of physics.
General
Format                           : AVI
Format/Info                      : Audio Video Interleave
File size                        : 636 MiB
Duration                         : 51mn 47s
Overall bit rate                 : 1 718 Kbps
Writing library                  : VirtualDub build 13870/release

Video
ID                               : 0
Format                           : MPEG-4 Visual
Format settings, BVOP            : No
Format settings, QPel            : No
Format settings, GMC             : No warppoints
Format settings, Matrix          : Default (H.263)
Codec ID                         : DX50
Codec ID/Hint                    : DivX 5
Duration                         : 51mn 47s
Bit rate                         : 1 581 Kbps
Width                            : 720 pixels
Height                           : 480 pixels
Display aspect ratio             : 3:2
Frame rate                       : 23.976 fps
Standard                         : NTSC
Color space                      : YUV
Chroma subsampling               : 4:2:0
Bit depth                        : 8 bits
Scan type                        : Progressive
Compression mode                 : Lossy
Bits/(Pixel*Frame)               : 0.191
Stream size                      : 586 MiB (92%)
Writing library                  : DivX 5.0.5 (UTC 2003-04-24)

Audio
ID                               : 1
Format                           : MPEG Audio
Format version                   : Version 1
Format profile                   : Layer 3
Mode                             : Joint stereo
Codec ID                         : 55
Codec ID/Hint                    : MP3
Duration                         : 51mn 34s
Bit rate mode                    : Constant
Bit rate                         : 128 Kbps
Channel(s)                       : 2 channels
Sampling rate                    : 44.1 KHz
Compression mode                 : Lossy
Delay relative to video          : 11ms
Stream size                      : 47.2 MiB (7%)
Alignment                        : Split accross interleaves
Interleave, duration             : 42 ms (1.00 video frame)
Interleave, preload duration     : 500 ms
Writing library                  : LAME3.92

bushymait
Banned
Posts: 808
Joined: Sat Apr 05, 2008 3:59 pm
Been thanked: 18 times

Travis and the Nitro Circus - Vol.2 2004

Post by bushymait » Thu Jan 27, 2011 5:53 pm

vasfilms.com wrote:Godfrey Entertainment and dirt bike superstar Travis Pastrana have teamed up again to film Travis & The Nitro Circus 2 (NC2). In addition to jaw dropping antics by Pastrana, NC2 is stacked with riding action from a who's who list of the motocross world. This list includes Cowboy Kenny Bartram, Nate Adams, Ronnie Renner, Matt Buyten, Drake McElroy, Jesse Olsen, and many others. This year the Godfrey Crew took the riders all over the map in search of new and interesting places to ride. NC2 has been filmed in Hawaii, Austria, Czech Republic, Italy and the USA. Godfrey Entertainment has remained true to its proven formula of interspersing mind-blowing action by top athletes with highly entertaining (and questionable) antics by the legendary Nitro Circus clowns. NC2 contains stunts that have never been attempted before and other stunts which no human should ever try again.
General
Format                           : AVI
Format/Info                      : Audio Video Interleave
File size                        : 619 MiB
Duration                         : 55mn 55s
Overall bit rate                 : 1 547 Kbps
Writing application              : VirtualDubMod 1.5.10.1 (build 2439/release)
Writing library                  : VirtualDubMod build 2439/release

Video
ID                               : 0
Format                           : MPEG-4 Visual
Format settings, BVOP            : 1
Format settings, QPel            : No
Format settings, GMC             : No warppoints
Format settings, Matrix          : Default (H.263)
Muxing mode                      : Packed bitstream
Codec ID                         : DX50
Codec ID/Hint                    : DivX 5
Duration                         : 55mn 55s
Bit rate                         : 1 375 Kbps
Width                            : 640 pixels
Height                           : 352 pixels
Display aspect ratio             : 16:9
Frame rate                       : 23.976 fps
Color space                      : YUV
Chroma subsampling               : 4:2:0
Bit depth                        : 8 bits
Scan type                        : Progressive
Compression mode                 : Lossy
Bits/(Pixel*Frame)               : 0.255
Stream size                      : 550 MiB (89%)
Writing library                  : DivX 5.1.1 (Maupiti) (UTC 2003-11-19)

Audio
ID                               : 1
Format                           : MPEG Audio
Format version                   : Version 1
Format profile                   : Layer 3
Mode                             : Joint stereo
Mode extension                   : MS Stereo
Codec ID                         : 55
Codec ID/Hint                    : MP3
Duration                         : 55mn 55s
Bit rate mode                    : Variable
Bit rate                         : 160 Kbps
Channel(s)                       : 2 channels
Sampling rate                    : 48.0 KHz
Compression mode                 : Lossy
Stream size                      : 63.9 MiB (10%)
Alignment                        : Aligned on interleaves
Interleave, duration             : 24 ms (0.58 video frame)
Interleave, preload duration     : 115 ms
Writing library                  : LAME3.90.

bushymait
Banned
Posts: 808
Joined: Sat Apr 05, 2008 3:59 pm
Been thanked: 18 times

Travis and the Nitro Circus - Lock N Load 2006

Post by bushymait » Thu Jan 27, 2011 6:08 pm

vasfilms.com wrote:Look ma! No hands! It's loud. It's loose. It's the Nitro Circus. We've rounded up the crew packed the powder now it's time to 'Lock and Load' , and put the fire in the hole. Erratic, random chaos is the flavor. Straight doses of ADHD players is the source. It's our beloved Travis just being Travis. Anyone who is involved with this movie is freakin' nuts! You in? Caution idiots ahead. Don't get too close or you might lose a finger. Lock and Load features the best riders in the world doing stunts, gone good, gone bad. (C'mon, it IS Travis) Join the Nitro Circus crew as they crash their way across the world.
General
Format                           : AVI
Format/Info                      : Audio Video Interleave
File size                        : 700 MiB
Duration                         : 57mn 31s
Overall bit rate                 : 1 701 Kbps
Writing application              : VirtualDubMod 1.5.10.2 (build 2540/release)
Writing library                  : VirtualDubMod build 2540/release

Video
ID                               : 0
Format                           : MPEG-4 Visual
Format profile                   : Advanced Simple@L5
Format settings, BVOP            : 2
Format settings, QPel            : No
Format settings, GMC             : No warppoints
Format settings, Matrix          : Default (H.263)
Muxing mode                      : Packed bitstream
Codec ID                         : XviD
Codec ID/Hint                    : XviD
Duration                         : 57mn 31s
Bit rate                         : 1 490 Kbps
Width                            : 576 pixels
Height                           : 432 pixels
Display aspect ratio             : 4:3
Frame rate                       : 29.970 fps
Color space                      : YUV
Chroma subsampling               : 4:2:0
Bit depth                        : 8 bits
Scan type                        : Progressive
Compression mode                 : Lossy
Bits/(Pixel*Frame)               : 0.200
Stream size                      : 613 MiB (88%)
Writing library                  : XviD 1.1.0 (UTC 2005-11-22)

Audio
ID                               : 1
Format                           : MPEG Audio
Format version                   : Version 1
Format profile                   : Layer 3
Mode                             : Joint stereo
Mode extension                   : MS Stereo
Codec ID                         : 55
Codec ID/Hint                    : MP3
Duration                         : 57mn 27s
Bit rate mode                    : Variable
Bit rate                         : 192 Kbps
Channel(s)                       : 2 channels
Sampling rate                    : 48.0 KHz
Compression mode                 : Lossy
Stream size                      : 81.0 MiB (12%)
Alignment                        : Aligned on interleaves
Interleave, duration             : 24 ms (0.72 video frame)
Interleave, preload duration     : 93 ms
Writing library                  : LAME3.90.
Encoding settings                : -m j -V 4 -q 2 -lowpass 19.6 --abr 192

bushymait
Banned
Posts: 808
Joined: Sat Apr 05, 2008 3:59 pm
Been thanked: 18 times

Travis and the Nitro Circus - Thrillbillies 2008

Post by bushymait » Thu Jan 27, 2011 6:33 pm

vasfilms.com wrote:Godfrey Entertainment and dirt bike superstar Travis Pastrana have teamed up again with the Nitro Circus Crew to film Thrillbillies. Just when you thought they coldn't possibly outdo themselves, the Nitro Circus Crew heads full throttle into the gears of insanity in Thrillbillies. The film features footage, along with bruises, concussions and broken axles, from the now infamous Castaic, CA shoot, the Nitro Circus Summer and Winter Games, Travis' mind-blowing, death defying stunts and much, much more. Those with weak stomachs beware!
General Disc 1
Format                           : AVI
Format/Info                      : Audio Video Interleave
File size                        : 349 MiB
Duration                         : 43mn 5s
Overall bit rate                 : 1 133 Kbps
Writing application              : VirtualDubMod 1.5.4.1 (build 2178/release)
Writing library                  : VirtualDubMod build 2178/release

Video
ID                               : 0
Format                           : MPEG-4 Visual
Format profile                   : Advanced Simple@L5
Format settings, BVOP            : 1
Format settings, QPel            : No
Format settings, GMC             : No warppoints
Format settings, Matrix          : Custom
Codec ID                         : XviD
Codec ID/Hint                    : XviD
Duration                         : 43mn 5s
Bit rate                         : 943 Kbps
Width                            : 448 pixels
Height                           : 336 pixels
Display aspect ratio             : 4:3
Frame rate                       : 29.970 fps
Color space                      : YUV
Chroma subsampling               : 4:2:0
Bit depth                        : 8 bits
Scan type                        : Progressive
Compression mode                 : Lossy
Bits/(Pixel*Frame)               : 0.209
Stream size                      : 291 MiB (83%)
Writing library                  : XviD 1.2.0.dev47 (UTC 2006-11-01)

Audio
ID                               : 1
Format                           : MPEG Audio
Format version                   : Version 1
Format profile                   : Layer 3
Mode                             : Joint stereo
Mode extension                   : MS Stereo
Codec ID                         : 55
Codec ID/Hint                    : MP3
Duration                         : 43mn 5s
Bit rate mode                    : Variable
Bit rate                         : 176 Kbps
Nominal bit rate                 : 192 Kbps
Channel(s)                       : 2 channels
Sampling rate                    : 48.0 KHz
Compression mode                 : Lossy
Stream size                      : 54.3 MiB (16%)
Alignment                        : Aligned on interleaves
Interleave, duration             : 24 ms (0.72 video frame)
Interleave, preload duration     : 480 ms
Writing library                  : LAME3.97 
Encoding settings                : -m j -V 4 -q 2 -lowpass 18.6 --abr 192


General Disc 2
Format                           : AVI
Format/Info                      : Audio Video Interleave
File size                        : 350 MiB
Duration                         : 20mn 40s
Overall bit rate                 : 2 366 Kbps
Writing application              : VirtualDubMod 1.5.4.1 (build 2178/release)
Writing library                  : VirtualDubMod build 2178/release

Video
ID                               : 0
Format                           : MPEG-4 Visual
Format profile                   : Advanced Simple@L5
Format settings, BVOP            : 1
Format settings, QPel            : No
Format settings, GMC             : No warppoints
Format settings, Matrix          : Custom
Codec ID                         : XviD
Codec ID/Hint                    : XviD
Duration                         : 20mn 40s
Bit rate                         : 2 176 Kbps
Width                            : 608 pixels
Height                           : 464 pixels
Display aspect ratio             : 4:3
Frame rate                       : 29.970 fps
Color space                      : YUV
Chroma subsampling               : 4:2:0
Bit depth                        : 8 bits
Scan type                        : Progressive
Compression mode                 : Lossy
Bits/(Pixel*Frame)               : 0.257
Stream size                      : 322 MiB (92%)
Writing library                  : XviD 1.2.0.dev47 (UTC 2006-11-01)

Audio
ID                               : 1
Format                           : MPEG Audio
Format version                   : Version 1
Format profile                   : Layer 3
Mode                             : Joint stereo
Mode extension                   : MS Stereo
Codec ID                         : 55
Codec ID/Hint                    : MP3
Duration                         : 20mn 40s
Bit rate mode                    : Variable
Bit rate                         : 176 Kbps
Channel(s)                       : 2 channels
Sampling rate                    : 48.0 KHz
Compression mode                 : Lossy
Stream size                      : 26.0 MiB (7%)
Alignment                        : Aligned on interleaves
Interleave, duration             : 24 ms (0.72 video frame)
Interleave, preload duration     : 498 ms


[ Add all 2 links to your ed2k client ]

Post Reply

Return to “Sports”