The Fishing Show: Giant Tuna Adventures (2008)

Sports related links from all over the world.
Post Reply
btripp6
Registered user
Registered user
Posts: 213
Joined: Sun Mar 09, 2008 3:25 pm
Has thanked: 3 times
Been thanked: 3 times

The Fishing Show: Giant Tuna Adventures (2008)

Post by btripp6 » Sat Aug 08, 2009 1:34 pm

Image
Giant tuna adventures takes viewers to some of the most remote fishing locations around New Zealand and the South Pacific. This program has wall to wall action, suspense and drama like you’ve never seen before as the team of intrepid anglers are stretched to the limit by huge fish. Fisherman or not, this DVD is stunning
!

Code: Select all

General
Complete name                    : The.Fishing.Show.Giant.Tuna.Adventures.2008.DVDRip.XviD-WPi.avi
Format                           : AVI
Format/Info                      : Audio Video Interleave
File size                        : 700 MiB
Duration                         : 1h 11mn
Overal bit rate                  : 1367 Kbps
Writing application              : VirtualDubMod 1.5.10.2 (build 2540/release)
Writing library                  : VirtualDubMod build 2540/release

Video
Format                           : MPEG-4 Visual
Format profile                   : Streaming Video@L1
Format settings, BVOP            : Yes
Format settings, QPel            : No
Format settings, GMC             : No warppoints
Format settings, Matrix          : Default
Codec ID                         : XviD
Codec ID/Hint                    : XviD
Duration                         : 1h 11mn
Bit rate                         : 1225 Kbps
Width                            : 512 pixels
Height                           : 368 pixels
Display aspect ratio             : 1.391
Frame rate                       : 25.000 fps
Resolution                       : 8 bits
Colorimetry                      : 4:2:0
Scan type                        : Progressive
Bits/(Pixel*Frame)               : 0.260
Stream size                      : 627 MiB
Writing library                  : XviD 1.1.2 (UTC 2006-11-01)

Audio
Format                           : MPEG Audio
Format version                   : Version 1
Format profile                   : Layer 3
Codec ID                         : 55
Codec ID/Hint                    : MP3
Duration                         : 1h 11mn
Bit rate mode                    : Variable
Bit rate                         : 129 Kbps
Minimum bit rate                 : 136 Kbps
Channel(s)                       : 2 channels
Sampling rate                    : 48.0 KHz
Resolution                       : 16 bits
Stream size                      : 66.0 MiB
Writing library                  : LAME3.97b
Encoding settings                : ABR
Image

Image


The.Fishing.Show.Giant.Tuna.Adventures.2008.DVDRip.XviD-WPi.avi  [699.63 Mb]

Post Reply

Return to “Sports”