My.Demon.Lover.(1987).FS.VHSRip.AAC.x264

Movies in one of the following formats: DVD/VHS Screener (DVDScr/VHSScr; essentially pre-released, less-mastered DVDRips/VHSRips; can be clean or have watermarks such as 'Property of' messages, and black & white scenes), Workprint (WP), R5 DVD rip (R5.DVDRip; video encoded from a Russian retail DVD, while Russian audio usually replaced with cinema quality English audio), PDVD rip (PDVDRip; normally well-mastered TCs), VHS rip (VHSRip), LaserDisc capture (LDCap), and television source encodes (HDTV, DCCap, SatRip, DSR, TVRip).
Post Reply
erdamon
Movie Moderator
Movie Moderator
Posts: 1626
Joined: Sat Oct 14, 2006 12:00 am
Been thanked: 1 time

My.Demon.Lover.(1987).FS.VHSRip.AAC.x264

Post by erdamon » Fri Jan 30, 2015 1:54 am

Image

http://www.IMDb.com/title/tt0093589/

Storyline: Denny has yet again been left by her thug boyfriend Chip. It seems as if she is doomed to be stuck with awful guys, this time she has to choose between nerdy Charles and the strange Kaz, who turns into a monster when sexually aroused.

Code: Select all

General
Complete name                    : D:\eMule\Incoming\My Demon Lover.mp4
Format                           : MPEG-4
Format profile                   : Base Media / Version 2
Codec ID                         : mp42
File size                        : 1.85 GiB
Duration                         : 1h 29mn
Overall bit rate                 : 2 982 Kbps
Encoded date                     : UTC 2015-01-24 23:32:45
Tagged date                      : UTC 2015-01-25 01:35:56
Writing application              : HandBrake 0.9.8 2012071700

Video
ID                               : 1
Format                           : AVC
Format/Info                      : Advanced Video Codec
Format profile                   : Main@L3.0
Format settings, CABAC           : Yes
Format settings, ReFrames        : 4 frames
Codec ID                         : avc1
Codec ID/Info                    : Advanced Video Coding
Duration                         : 1h 29mn
Bit rate mode                    : Variable
Bit rate                         : 2 817 Kbps
Width                            : 704 pixels
Height                           : 572 pixels
Display aspect ratio             : 4:3
Frame rate mode                  : Variable
Frame rate                       : 24.956 fps
Minimum frame rate               : 8.333 fps
Maximum frame rate               : 25.000 fps
Resolution                       : 8 bits
Colorimetry                      : 4:2:0
Scan type                        : Progressive
Bits/(Pixel*Frame)               : 0.280
Stream size                      : 1.75 GiB (94%)
Writing library                  : x264 core 120
Encoding settings                : cabac=1 / ref=1 / deblock=1:0:0 / analyse=0x1:0x111 / me=hex /
                                   subme=2 / psy=1 / psy_rd=1.00:0.00 / mixed_ref=0 / me_range=16 /
                                   chroma_me=1 / trellis=0 / 8x8dct=0 / cqm=0 / eadzone=21,11 /
                                   fast_pskip=1 / chroma_qp_offset=0 / threads=1 / sliced_threads=0 /
                                   nr=0 / decimate=1 / interlaced=0 / bluray_compat=0 / constrained_intra=0 /
                                   bframes=3 / b_pyramid=2 / b_adapt=1 / b_bias=0 / direct=1 / weightb=1 /
                                   open_gop=0 / weightp=1 / keyint=250 / keyint_min=25 / scenecut=40 /
                                   intra_refresh=0 / rc_lookahead=10 / rc=crf / mbtree=1 / crf=20.0 /
                                   qcomp=0.60 / qpmin=3 / qpmax=69 / qpstep=4 / ip_ratio=1.40 / aq=1:1.00
Encoded date                     : UTC 2015-01-24 23:32:45
Tagged date                      : UTC 2015-01-25 01:35:56
Color primaries                  : BT.601-6 525, BT.1358 525, BT.1700 NTSC, SMPTE 170M
Transfer characteristics         : BT.709-5, BT.1361
Matrix coefficients              : BT.601-6 525, BT.1358 525, BT.1700 NTSC, SMPTE 170M

Audio
ID                               : 2
Format                           : AAC
Format/Info                      : Advanced Audio Codec
Format version                   : Version 4
Format profile                   : LC
Format settings, SBR             : No
Codec ID                         : 40
Duration                         : 1h 29mn
Bit rate mode                    : Variable
Bit rate                         : 160 Kbps
Maximum bit rate                 : 255 Kbps
Channel(s)                       : 2 channels
Channel positions                : L R
Sampling rate                    : 48.0 KHz
Stream size                      : 102 MiB (5%)
Encoded date                     : UTC 2015-01-24 23:32:45
Tagged date                      : UTC 2015-01-25 01:35:55

Text
ID                               : 3
Format                           : Apple text
Codec ID                         : text
Duration                         : 1h 29mn
Bit rate mode                    : Constant
Bit rate                         : 0
Stream size                      : 207 Bytes (0%)
Encoded date                     : UTC 2015-01-24 23:32:45
Tagged date                      : UTC 2015-01-25 01:35:56

Image
Image
Image Image Image Image Image


My Demon Lover.mp4  [1.85 Gb]

[glow=red]On powershare (Special thanks for this release to MAFIATEAM1).[/glow]

Post Reply

Return to “Non-Retail (DVDScr, WP, R5, PDVD, VHS, LD, HDTV, TV)”

Who is online

Users browsing this forum: billyboyblue, Fenix_PT, gumtree, Macrogh, memphis01 and 3 guests