The.Games.(1970).FS.TVRip.XviD

Movies in one of the following formats: DVD/VHS Screener (DVDScr/VHSScr; essentially pre-released, less-mastered DVDRips/VHSRips; can be clean or have watermarks such as 'Property of' messages, and black & white scenes), Workprint (WP), R5 DVD rip (R5.DVDRip; video encoded from a Russian retail DVD, while Russian audio usually replaced with cinema quality English audio), PDVD rip (PDVDRip; normally well-mastered TCs), VHS rip (VHSRip), LaserDisc capture (LDCap), and television source encodes (HDTV, DCCap, SatRip, DSR, TVRip).
Post Reply
erdamon
Registered user
Registered user
Posts: 1382
Joined: Sat Oct 14, 2006 12:00 am
Been thanked: 4 times

The.Games.(1970).FS.TVRip.XviD

Post by erdamon » Wed Oct 08, 2014 1:23 am

The Games (1970)

Image

http://www.IMDb.com/title/tt0082307/

Storyline: Four marathon runners (one from England, one from the U.S., a Czech and an Australian Aborigine) prepare to run in the Olympic games. The film follows each one and shows what their motivations are for running in the games.

Code: Select all

General
Complete name                    : D:\eMule\Incoming\La Prueba del Valor (The Games, 1970) VO.sharethefiles.com.avi
Format                           : AVI
Format/Info                      : Audio Video Interleave
File size                        : 1.37 GiB
Duration                         : 1h 36mn
Overall bit rate                 : 2 027 Kbps
Writing application              : VirtualDubMod 1.5.4.1 (build 2178/release)
Writing library                  : VirtualDubMod build 2178/release

Video
ID                               : 0
Format                           : MPEG-4 Visual
Format profile                   : Advanced Simple@L5
Format settings, BVOP            : Yes
Format settings, QPel            : No
Format settings, GMC             : No warppoints
Format settings, Matrix          : Custom
Codec ID                         : XviD
Codec ID/Hint                    : XviD
Duration                         : 1h 36mn
Bit rate                         : 1 764 Kbps
Width                            : 576 pixels
Height                           : 432 pixels
Display aspect ratio             : 4:3
Frame rate                       : 23.976 fps
Resolution                       : 8 bits
Colorimetry                      : 4:2:0
Scan type                        : Progressive
Bits/(Pixel*Frame)               : 0.296
Stream size                      : 1.19 GiB (87%)
Writing library                  : XviD 62

Audio
ID                               : 1
Format                           : AC-3
Format/Info                      : Audio Coding 3
Codec ID                         : 2000
Duration                         : 1h 36mn
Bit rate mode                    : Constant
Bit rate                         : 256 Kbps
Channel(s)                       : 2 channels
Channel positions                : L R
Sampling rate                    : 48.0 KHz
Stream size                      : 177 MiB (13%)
Alignment                        : Split accross interleaves
Interleave, duration             : 96 ms (2.30 video frames)
Interleave, preload duration     : 96 ms
Language                         : English

Image
Image
Image Image Image Image Image


La Prueba del Valor (The Games, 1970) VO.avi  [1.37 Gb]

Post Reply

Return to “Non-Retail (DVDScr, WP, R5, PDVD, VHS, LD, HDTV, TV)”