[Française Dubbed] A Pup Named Scooby-Doo - S1

Vous trouverez ici les séries TV qui ont au moins une piste audio en français.
Post Reply
IoNeL
Banned
Posts: 1918
Joined: Tue Mar 17, 2009 11:53 pm
Been thanked: 3 times

[Française Dubbed] A Pup Named Scooby-Doo - S1

Post by IoNeL » Mon May 24, 2010 8:30 am

[Française Dubbed] A.Pup.Named.Scooby-Doo.(1988-1991).PDTV.XviD-sundark

Image
IMDb nfo: http://www.IMDb.com/title/tt0094531/
Plot:
Scooby-Doo, Where Are You! Premiered On September 13, 1969. This Cartoon Introduced Four Kids And A Dog Named Scooby-Doo. These Kids Were Daphne Blake, Freddy Jones, Velma Dinkley, Norville "Shaggy" Rogers, And Their Mascot. They Traveled Around In A Green Van Known As "The Mystery Machine" And Solved Many Scary Mysteries Along The Way.

In 1972, This Show Became The New Scooby-Doo Movies, Which Were Hour-long Episodes In Which The Gang Teamed Up With Famous Animated Stars And Celebrites To Solve Mysteries. This Format Aired Until 1973.

Scooby-Doo Was So Popular To Hanna-Barbara That It Spawned Many Different Cartoon Series Throughout The 1970's And The Early 1980's. These Shows Were As Follows: The Scooby-Doo Show, A Revamped Format Of This Show, Scooby And Scrappy-Doo, Which Introduced The Character Scrappy-Doo, The 13 Ghosts Of Scooby-Doo, And The Last Incarnation, A Pup Named Scooby-Doo, Which Featured The Cast As Kids. After More Than A Decade-long Absence Of Original Weekly Shows, A New Series, What's New Scooby-Doo?, Began Airing In September 2002.
Image

Code: Select all

General
Complete name                    :A.Pup.Named.Scooby-Doo.1x04.Le.Docteur.Croquetout.FR.PDTV.XviD-sundark.[tvu.org.ru].avi
Format                           : AVI
Format/Info                      : Audio Video Interleave
File size                        : 175 MiB
Duration                         : 23mn 10s
Overall bit rate                 : 1 056 Kbps
Writing application              : VirtualDubMod 1.5.4.1 (build 2178/release)
Writing library                  : VirtualDubMod build 2178/release

Video
ID                               : 0
Format                           : MPEG-4 Visual
Format profile                   : Simple@L3
Format settings, BVOP            : Yes
Format settings, QPel            : No
Format settings, GMC             : No warppoints
Format settings, Matrix          : Custom
Codec ID                         : XviD
Codec ID/Hint                    : XviD
Duration                         : 23mn 10s
Bit rate                         : 920 Kbps
Width                            : 640 pixels
Height                           : 480 pixels
Display aspect ratio             : 4:3
Frame rate                       : 25.000 fps
Resolution                       : 8 bits
Colorimetry                      : 4:2:0
Scan type                        : Progressive
Bits/(Pixel*Frame)               : 0.120
Stream size                      : 153 MiB (87%)
Writing library                  : XviD 1.0.1 (UTC 2004-06-05)

Audio
ID                               : 1
Format                           : MPEG Audio
Format version                   : Version 1
Format profile                   : Layer 3
Mode                             : Joint stereo
Format_Settings_ModeExtension    : MS Stereo
Codec ID                         : 55
Codec ID/Hint                    : MP3
Duration                         : 23mn 10s
Bit rate mode                    : Constant
Bit rate                         : 128 Kbps
Channel(s)                       : 2 channels
Sampling rate                    : 44.1 KHz
Video delay                      : 8ms
Stream size                      : 21.2 MiB (12%)
Alignment                        : Split accross interleaves
Interleave, duration             : 80 ms (2.00 video frames)
Interleave, preload duration     : 500 ms
Writing library                  : LAME3.92׳׳׳׳׳׳׳׳׳׳׳׳
Image

Image

Image

Image

Image
eD2K Links:
A.Pup.Named.Scooby-Doo.1x02.L'Œil.Monstrueux.FR.PDTV.XviD-sundark.avi  [175.06 Mb]
A.Pup.Named.Scooby-Doo.1x03.Quel.Fromage.Scooby-Doo.FR.PDTV.XviD-sundark.avi  [175.05 Mb]
A.Pup.Named.Scooby-Doo.1x04.Le.Docteur.Croquetout.FR.PDTV.XviD-sundark.avi  [175.03 Mb]
A.Pup.Named.Scooby-Doo.1x05.Au.Pied.De.La.Lettre.FR.PDTV.XviD-sundark.avi  [175.07 Mb]
A.Pup.Named.Scooby-Doo.1x06.Les.Zombies.Sont.Là.FR.PDTV.XviD-sundark.avi  [175.04 Mb]
A.Pup.Named.Scooby-Doo.1x07.Le.Monstre.Des.Neiges.FR.PDTV.XviD-sundark.avi  [175.05 Mb]
A.Pup.Named.Scooby-Doo.1x08.Le.Fantôme.Du.Musée.FR.PDTV.XviD-sundark.avi  [175.05 Mb]
A.Pup.Named.Scooby-Doo.1x09.L'Ami.Scooby-Doo.FR.PDTV.XviD-sundark.avi  [175.03 Mb]
A.Pup.Named.Scooby-Doo.1x10.Scooby-Doo.Bouh.FR.PDTV.XviD-sundark.avi  [206.52 Mb]

[ Add all 9 links to your ed2k client ]

Post Reply

Return to “Télévision Française”