[Français] Le jeu de la mort Jusqu'ou va la télé

Vous trouverez ici les séries TV qui ont au moins une piste audio en français.
Post Reply
Mr. Fido
Registered user
Registered user
Posts: 1489
Joined: Tue Jan 20, 2004 6:05 pm
Been thanked: 14 times

[Français] Le jeu de la mort Jusqu'ou va la télé

Post by Mr. Fido » Sat Mar 20, 2010 1:52 pm

Le Jeu De La Mort - Jusqu'où Va La Télé!

Image

France is reeling from a documentary about a psychological experiment disguised as a game show. Researchers staged a fictitious reality show to see how far people would go in obeying authority, especially if television reinforces that authority.

The disturbing results have alarmed the French.

The fictitious game show had all the trappings of a real TV quiz show, including a beautiful and well-known hostess, and a raucous audience. A group of contestants posed questions to a man sitting inside a box in front of them in an electric chair.

The hostess and a chanting audience urged the players — who had levers in front of them — to send jolts of electricity into the man in the box when he gave an incorrect answer. (...)


viewtopic.php?f=42&t=164275

Code: Select all

General
Complete name                    : K:\eMule_folders\Incoming\Le.jeu.de.la.mort.Jusqu'ou.va.la.télé.FR.TVRip.XviD-SevenTNTRiP.avi
Format                           : AVI
Format/Info                      : Audio Video Interleave
File size                        : 785 MiB
Duration                         : 2h 29mn
Overall bit rate                 : 733 Kbps
Writing library                  : VirtualDub-MPEG2 Fr build 24587/release

Video
ID                               : 0
Format                           : MPEG-4 Visual
Format profile                   : Advanced Simple@L5
Format settings, BVOP            : Yes
Format settings, QPel            : No
Format settings, GMC             : No warppoints
Format settings, Matrix          : Default (H.263)
Muxing mode                      : Packed bitstream
Codec ID                         : XviD
Codec ID/Hint                    : XviD
Duration                         : 2h 29mn
Bit rate                         : 595 Kbps
Width                            : 480 pixels
Height                           : 288 pixels
Display aspect ratio             : 1.667
Frame rate                       : 25.000 fps
Resolution                       : 8 bits
Colorimetry                      : 4:2:0
Scan type                        : Progressive
Bits/(Pixel*Frame)               : 0.172
Stream size                      : 637 MiB (81%)
Writing library                  : XviD 1.0.1 (UTC 2004-06-05)

Audio
ID                               : 1
Format                           : MPEG Audio
Format version                   : Version 1
Format profile                   : Layer 3
Mode                             : Joint stereo
Format_Settings_ModeExtension    : MS Stereo
Codec ID                         : 55
Codec ID/Hint                    : MP3
Duration                         : 2h 29mn
Bit rate mode                    : Constant
Bit rate                         : 128 Kbps
Channel(s)                       : 2 channels
Sampling rate                    : 48.0 KHz
Video delay                      : 12ms
Stream size                      : 137 MiB (17%)
Alignment                        : Split accross interleaves
Interleave, duration             : 40 ms (1.00 video frame)
Interleave, preload duration     : 500 ms
Writing library                  : LAME3.98.2UU
Le.jeu.de.la.mort.Jusqu'ou.va.la.télé.FR.TVRip.XviD-SevenTNTRiP.avi  [784.76 Mb]

Post Reply

Return to “Télévision Française”