[Français] Le.Conte.De.La.Princesse.Kaguya.(aka.The.Tale.of.The.Princess.Kaguya).(2013).BDRip.XviD-DesTroY

Vous trouverez ici les films qui ont au moins une piste audio en français.
Post Reply
IoNeL
Banned
Posts: 1306
Joined: Tue Mar 17, 2009 11:53 pm
Been thanked: 2 times

[Français] Le.Conte.De.La.Princesse.Kaguya.(aka.The.Tale.of.The.Princess.Kaguya).(2013).BDRip.XviD-DesTroY

Post by IoNeL » Mon Jun 15, 2015 9:23 am

Le Conte De La Princesse Kaguya (2013)
.(aka.The Tale of The Princess Kaguya)
Image
click on poster to see another poster
ImageImage
http://www.IMDb.com/title/tt2576852/
PG | 137 min | [glow=red]Animation, Drama, Fantasy[/glow] |
Found inside a shining stalk of bamboo by an old bamboo cutter and his wife, a tiny girl grows rapidly into an exquisite young lady. The mysterious young princess enthralls all who encounter her - but ultimately she must confront her fate, the punishment for her crime.

Code: Select all

General
Complete name                            : ZZZ:\ Le.Conte.De.La.Princesse.Kaguya.2013.FRENCH.BRRip.XviD-DesTroY\Le.Conte.De.La.Princesse.Kaguya.(aka.The.Tale.of.The.Princess.Kaguya).(2013)..BDRip.XviD-DesTroY sharethefiles.com.avi
Format                                   : AVI
Format/Info                              : Audio Video Interleave
File size                                : 1.37 GiB
Duration                                 : 2h 17mn
Overall bit rate                         : 1 424 Kbps
Writing application                      : VirtualDubMod 1.5.10.2 Fr | www.trad-fr.com ||  (build 2540/release)
Writing library                          : VirtualDubMod build 2540/release

Video
ID                                       : 0
Format                                   : MPEG-4 Visual
Format profile                           : Advanced Simple@L5
Format settings, BVOP                    : 1
Format settings, QPel                    : No
Format settings, GMC                     : No warppoints
Format settings, Matrix                  : Default (H.263)
Muxing mode                              : Packed bitstream
Codec ID                                 : XviD
Codec ID/Hint                            : XviD
Duration                                 : 2h 17mn
Bit rate                                 : 1 287 Kbps
Width                                    : 624 pixels
Height                                   : 336 pixels
Display aspect ratio                     : 1.85:1
Frame rate                               : 23.976 fps
Color space                              : YUV
Chroma subsampling                       : 4:2:0
Bit depth                                : 8 bits
Scan type                                : Progressive
Compression mode                         : Lossy
Bits/(Pixel*Frame)                       : 0.256
Stream size                              : 1.23 GiB (90%)
Writing library                          : XviD 1.2.1 (UTC 2008-12-04)

Audio
ID                                       : 1
Format                                   : MPEG Audio
Format version                           : Version 1
Format profile                           : Layer 3
Codec ID                                 : 55
Codec ID/Hint                            : MP3
Duration                                 : 2h 17mn
Bit rate mode                            : Constant
Bit rate                                 : 128 Kbps
Channel(s)                               : 2 channels
Sampling rate                            : 48.0 KHz
Compression mode                         : Lossy
Stream size                              : 126 MiB (9%)
Alignment                                : Aligned on interleaves
Interleave, duration                     : 42 ms (1.00 video frame)
Interleave, preload duration             : 504 ms
Writing library                          : LAME3.98r
Encoding settings                        : -m s -V 4 -q 2 -lowpass 17 -b 128

IoNeL
Banned
Posts: 1306
Joined: Tue Mar 17, 2009 11:53 pm
Been thanked: 2 times

Re: [Français] Le.Conte.De.La.Princesse.Kaguya.(aka.The.Tale.of.The.Princess.Kaguya).(2013)..BDRip.XviD-DesTroY

Post by IoNeL » Sat Sep 12, 2015 10:45 pm

insane_me wrote:If you cant that one I got this version in my shared folder now: The%20Tale%20of%20Princess%20Kaguya%20-%20[Kamigami-Raws]%20[BD%20x264%20720p%20AAC%20Sub(Man,Can,Jap,Eng,Fre,Kor)].mkv[/url]
:rulez!
According to the rules, do not post links to files only in the appropriate forum (because it will make to those who make search for this film to think that the movie has posted).

----
According to the rules, do not quote (=duplicate) links.
Link deactivated.
Also according to the rules, if you see something that is against the rules, click the "report"-button. Do not respond yourself.
~momijigari

Post Reply

Return to “Films Français”