[Français] Tom.and.Jerry.Santa's.Little.Helpers.(2014).DVDRip.XviD-Animatix

Vous trouverez ici les films qui ont au moins une piste audio en français.
Post Reply
IoNeL
Banned
Posts: 1311
Joined: Tue Mar 17, 2009 11:53 pm
Been thanked: 2 times

[Français] Tom.and.Jerry.Santa's.Little.Helpers.(2014).DVDRip.XviD-Animatix

Post by IoNeL » Mon May 18, 2015 6:05 am

Français Tom and Jerry: Santa's Little Helpers (2014)
Image
Image
http://www.IMDb.com/title/tt3559124
A cat and mouse brawl with each other.

Code: Select all

General
Complete name                            : Z:\Tom.and.Jerry.Santa's.Little.Helpers.2014.FRENCH.DVDRip.XviD.Animatix\Tom.and.Jerry.Santa's.Little.Helpers.(2014).DVDRip.XviD-Animatix sharethefiles.com.avi
Format                                   : AVI
Format/Info                              : Audio Video Interleave
File size                                : 701 MiB
Duration                                 : 1h 43mn
Overall bit rate                         : 950 Kbps
Writing application                      : VirtualDubMod 1.5.10.2 (build 2542/release)
Writing library                          : VirtualDubMod build 2542/release

Video
ID                                       : 0
Format                                   : MPEG-4 Visual
Format profile                           : Advanced Simple@L5
Format settings, BVOP                    : 1
Format settings, QPel                    : No
Format settings, GMC                     : No warppoints
Format settings, Matrix                  : Default (H.263)
Muxing mode                              : Packed bitstream
Codec ID                                 : XviD
Codec ID/Hint                            : XviD
Duration                                 : 1h 43mn
Bit rate                                 : 682 Kbps
Width                                    : 712 pixels
Height                                   : 400 pixels
Display aspect ratio                     : 16:9
Frame rate                               : 25.000 fps
Color space                              : YUV
Chroma subsampling                       : 4:2:0
Bit depth                                : 8 bits
Scan type                                : Progressive
Compression mode                         : Lossy
Bits/(Pixel*Frame)                       : 0.096
Stream size                              : 503 MiB (72%)
Writing library                          : XviD 64

Audio
ID                                       : 1
Format                                   : MPEG Audio
Format version                           : Version 1
Format profile                           : Layer 3
Mode                                     : Joint stereo
Codec ID                                 : 55
Codec ID/Hint                            : MP3
Duration                                 : 1h 43mn
Bit rate mode                            : Constant
Bit rate                                 : 320 Kbps
Channel(s)                               : 2 channels
Sampling rate                            : 48.0 KHz
Compression mode                         : Lossy
Stream size                              : 188 MiB (27%)
Alignment                                : Aligned on interleaves
Interleave, duration                     : 24 ms (0.60 video frame)
Interleave, preload duration             : 632 ms

Post Reply

Return to “Films Français”